找回密码

蓝光电影网

查看: 71|回复: 0

[剧情] 玩命记忆[简繁英字幕].Unknown.2006.BluRay.1080p.DTS-HD.MA5.1.x265.10bit-ALT 8.42GB

[复制链接]
蓝光币
8
发表于 2022-7-28 01:49:59 | 显示全部楼层 |阅读模式


◎标  题 玩命记忆
◎片  名 Unknown
◎年  代 2006
◎产  地 美国
◎类  别 剧情 / 悬疑 / 惊悚 / 犯罪
◎语  言 英语
◎上映日期 2006-11-01(美国)
◎IMDb评分 6.5/10 (30040人评价)
◎IMDb链接 https://www.imdb.com/title/tt0450340/
◎豆瓣评分 7.2/10 (30765人评价)
◎豆瓣链接 https://movie.douban.com/subject/1892848/
◎片  长 85 分钟
◎导  演 西蒙·布兰德 Simon Brand
◎编  剧 马修·韦恩 Matthew Waynee
◎演  员 吉姆·卡维泽 Jim Caviezel
       格雷戈·金尼尔 Greg Kinnear
       布丽姬·穆娜 Bridget Moynahan
       乔·潘托里亚诺 Joe Pantoliano
       巴里·佩珀 Barry Pepper
       杰瑞米·西斯托 Jeremy Sisto
       彼得·斯特曼 Peter Stormare
       克里斯·马尔基 Chris Mulkey
       克莱恩·克劳福德 Clayne Crawford
       凯文·查普曼 Kevin Chapman
       小马克·布恩 Mark Boone Junior
       威尔莫·卡德隆 Wilmer Calderon
       大卫·塞尔比 David Selby
       亚当·罗德里格兹 Adam Rodriguez
       杰弗里·丹尼尔·菲利普斯 Jeffrey Daniel Phillips
       小托马斯·罗萨莱斯 Thomas Rosales Jr.
       本布雷 Ben Bray
       梅尔·罗德里格斯 Mel Rodriguez
       Paul E. Short Paul E. Short
       帕特里夏·贝尔彻 Patricia Belcher
       布莱尔·威廉姆森 Blair Williamson
       布里特·德拉诺 Britt Delano
       维多利亚·嘉丝蒂 Victoria Justice
       西蒙·布兰德 Simon Brand
       Katie Piel Katie Piel
       阿尔佛莱德·卡斯特罗 Alfredo Castro
◎标  签 悬疑 / 犯罪 / 美国 / 心理 / 惊悚 / 剧情 / 美国电影 / 2006
◎简  介
    在一座停产的密闭工场里,五个汉子从昏迷直达醒,但他们却想不起来自己身为何人,又为何在这里,唯一清楚的是,他们被困在这里,而且或被捆、或受伤,状态糟糕。与此同时,一路绑架案的赎金交接法式正在停止,暴徒依靠高明的事前预备成功拿到了钱并脱身,黑暗监视的差人们敏捷展开了追击。厂房里的五个汉子在经过搜寻模糊的记忆片断与分析后,大致理清了当下的情势:五人中有两人是被绑架的某公司总裁寇斯与同事麦肯,其他三人则是绑匪,实在的寇斯与麦肯必须在收钱的绑匪返回前脱身,否则将面临撕票的危险,可是在身份没法肯定的情况下,每小我想要保住本身平安又谈何轻易?
  1. ##### MediaInfo ######
  2. General
  3. Unique ID                                : 288493320068904301448509101896817101170 (0xD909CAD9EA94EEA847B01DE62B62C972)
  4. Complete name                            : Unknown.2006.BluRay.1080p.DTS-HD.MA5.1.x265.10bit-ALT.mkv
  5. Format                                   : Matroska
  6. Format version                           : Version 4
  7. File size                                : 8.41 GiB
  8. Duration                                 : 1 h 25 min
  9. Overall bit rate mode                    : Variable
  10. Overall bit rate                         : 14.1 Mb/s
  11. Encoded date                             : UTC 2022-07-26 12:27:07
  12. Writing application                      : mkvmerge v49.0.0 ('Sick Of Losing Soulmates') 64-bit
  13. Writing library                          : libebml v1.4.0 + libmatroska v1.6.1
  14. Video
  15. ID                                       : 1
  16. Format                                   : HEVC
  17. Format/Info                              : High Efficiency Video Coding
  18. Format profile                           : Main [email protected]@High
  19. Codec ID                                 : V_MPEGH/ISO/HEVC
  20. Duration                                 : 1 h 25 min
  21. Bit rate                                 : 10.0 Mb/s
  22. Width                                    : 1 920 pixels
  23. Height                                   : 816 pixels
  24. Display aspect ratio                     : 2.35:1
  25. Frame rate mode                          : Constant
  26. Frame rate                               : 23.976 (24000/1001/53875) FPS
  27. Color space                              : YUV
  28. Chroma subsampling                       : 4:2:0
  29. Bit depth                                : 10 bits
  30. Bits/(Pixel*Frame)                       : 0.267
  31. Stream size                              : 5.97 GiB (71%)
  32. Title                                    : HEVC, [email protected]@High, 24/1.001 fps @ 10018 kbps
  33. Writing library                          : x265 3.5+36-1f2c8da77:[Windows][GCC 11.2.0][64 bit] 10bit
  34. Encoding settings                        : cpuid=538751049583 / frame-threads=2 / numa-pools=4 / wpp / no-pmode / no-pme / no-psnr / no-ssim / log-level=2 / input-csp=1 / input-res=1920x816 / interlace=0 / total-frames=122664 / level-idc=51 / high-tier=1 / uhd-bd=0 / ref=5 / no-allow-non-conformance / no-repeat-headers / annexb / no-aud / no-eob / no-eos / no-hrd / info / hash=0 / no-temporal-layers / open-gop / min-keyint=24 / keyint=240 / gop-lookahead=0 / bframes=6 / b-adapt=2 / b-pyramid / bframe-bias=0 / rc-lookahead=40 / lookahead-slices=0 / NTM4NzU=uuDQuD2mJt9fsCf / scenecut=40 / no-hist-scenecut / radl=0 / no-splice / no-intra-refresh / ctu=32 / min-cu-size=8 / no-rect / no-amp / max-tu-size=32 / tu-inter-depth=3 / tu-intra-depth=3 / limit-tu=4 / rdoq-level=2 / dynamic-rd=0.00 / no-ssim-rd / signhide / no-tskip / nr-intra=0 / nr-inter=0 / no-constrained-intra / no-strong-intra-smoothing / max-merge=4 / limit-refs=1 / limit-modes / me=3 / subme=4 / merange=25 / temporal-mvp / no-frame-dup / no-hme / weightp / weightb / no-analyze-src-pics / deblock=-3:-3 / no-sao / no-sao-non-deblock / rd=6 / selective-sao=0 / no-early-skip / rskip / no-fast-intra / no-tskip-fast / no-cu-lossless / b-intra / no-splitrd-skip / rdpenalty=0 / psy-rd=2.00 / psy-rdoq=1.00 / no-rd-refine / no-lossless / cbqpoffs=-2 / crqpoffs=-2 / rc=crf / crf=17.0 / qcomp=0.65 / qpstep=4 / stats-write=0 / stats-read=0 / vbv-maxrate=80000 / vbv-bufsize=80000 / vbv-init=0.9 / min-vbv-fullness=50.0 / max-vbv-fullness=80.0 / crf-max=0.0 / crf-min=0.0 / ipratio=1.40 / pbratio=1.30 / aq-mode=2 / aq-strength=0.85 / cutree / zone-count=0 / no-strict-cbr / qg-size=32 / no-rc-grain / qpmax=69 / qpmin=0 / no-const-vbv / sar=1 / overscan=0 / videoformat=5 / range=0 / colorprim=1 / transfer=1 / colormatrix=1 / chromaloc=0 / display-window=0 / cll=0,0 / min-luma=0 / max-luma=1023 / log2-max-poc-lsb=8 / vui-timing-info / vui-hrd-info / slices=1 / no-opt-qp-pps / no-opt-ref-list-length-pps / no-multi-pass-opt-rps / scenecut-bias=0.05 / hist-threshold=0.03 / no-opt-cu-delta-qp / no-aq-motion / no-hdr10 / no-hdr10-opt / no-dhdr10-opt / no-idr-recovery-sei / analysis-reuse-level=0 / analysis-save-reuse-level=0 / analysis-load-reuse-level=0 / scale-factor=0 / refine-intra=0 / refine-inter=0 / refine-mv=1 / refine-ctu-distortion=0 / no-limit-sao / ctu-info=0 / no-lowpass-dct / refine-analysis-type=0 / copy-pic=1 / max-ausize-factor=1.0 / no-dynamic-refine / no-single-sei / no-hevc-aq / no-svt / no-field / qp-adaptation-range=1.00 / scenecut-aware-qp=0conformance-window-offsets / right=0 / bottom=0 / NTM4NzU= / decoder-max-rate=0 / no-vbv-live-multi-pass
  35. Language                                 : English
  36. Default                                  : Yes
  37. Forced                                   : No
  38. Color range                              : Limited
  39. Color primaries                          : BT.709
  40. Transfer characteristics                 : BT.709
  41. Matrix coefficients                      : BT.709
  42. Audio
  43. ID                                       : 2
  44. Format                                   : DTS XLL
  45. Format/Info                              : Digital Theater Systems
  46. Commercial name                          : DTS-HD Master Audio
  47. Codec ID                                 : A_DTS
  48. Duration                                 : 1 h 25 min
  49. Bit rate mode                            : Variable
  50. Bit rate                                 : 4 027 kb/s
  51. Channel(s)                               : 6 channels
  52. Channel layout                           : C L R Ls Rs LFE
  53. Sampling rate                            : 48.0 kHz
  54. Frame rate                               : 93.750 FPS (512 SPF)
  55. Bit depth                                : 24 bits
  56. Compression mode                         : Lossless
  57. Stream size                              : 2.40 GiB (29%)
  58. Title                                    : English DTS-HD Master Audio 5.1 @ 4027 kbps
  59. Language                                 : English
  60. Default                                  : Yes
  61. Forced                                   : No
  62. Text #1
  63. ID                                       : 3
  64. Format                                   : PGS
  65. Codec ID                                 : S_HDMV/PGS
  66. Codec ID/Info                            : Picture based subtitle format used on BDs/HD-DVDs
  67. Duration                                 : 1 h 14 min
  68. Bit rate                                 : 33.4 kb/s
  69. Count of elements                        : 1547
  70. Stream size                              : 17.8 MiB (0%)
  71. Title                                    : Eng/SUP
  72. Language                                 : English
  73. Default                                  : No
  74. Forced                                   : No
  75. Text #2
  76. ID                                       : 4
  77. Format                                   : PGS
  78. Codec ID                                 : S_HDMV/PGS
  79. Codec ID/Info                            : Picture based subtitle format used on BDs/HD-DVDs
  80. Duration                                 : 1 h 20 min
  81. Bit rate                                 : 25.7 kb/s
  82. Count of elements                        : 2286
  83. Stream size                              : 14.8 MiB (0%)
  84. Title                                    : Chs/SUP  简体
  85. Language                                 : Chinese
  86. Default                                  : Yes
  87. Forced                                   : No
  88. Text #3
  89. ID                                       : 5
  90. Format                                   : PGS
  91. Codec ID                                 : S_HDMV/PGS
  92. Codec ID/Info                            : Picture based subtitle format used on BDs/HD-DVDs
  93. Duration                                 : 1 h 20 min
  94. Bit rate                                 : 26.1 kb/s
  95. Count of elements                        : 2286
  96. Stream size                              : 15.1 MiB (0%)
  97. Title                                    : Cht/SUP  繁体
  98. Language                                 : Chinese
  99. Default                                  : No
  100. Forced                                   : No
复制代码

















保举请利用qBittorrent,utorrent,transmission等标准BT软件下载!以获得最快速度。奉求保种!





回复

使用道具 举报

懒得打字嘛,点击右侧快捷回复 【右侧内容,后台自定义】
您需要登录后才可以回帖 登录 | 立即加入

本版积分规则

Archiver|小黑屋| 蓝光电影网 |网站地图

Copyright © 2021 Comsenz Inc. Powered by 蓝光电影网

蓝光电影网

本站内容由用户自主分享和转载自互联网,转载目的在于传递更多信息,并不代表本网赞同其观点和对其真实性负责。

如有侵权、违反国家法律政策行为,请联系我们,我们会第一时间及时清除和处理!

举报反馈邮箱:[email protected]

快速回复 返回顶部 返回列表