找回密码

蓝光电影网

查看: 163|回复: 0

[剧情] 夏日福星[国语音轨].Twinkle.Twinkle.Lucky.Stars.1985.BluRay.1080p.DTS-HD.MA.1.0.x265.10bit-ALT 13.49GB

[复制链接]
蓝光币
8
发表于 2022-7-28 01:50:05 | 显示全部楼层 |阅读模式


◎标  题 夏日福星
◎译  名 七福星 / Seven Lucky Stars / Twinkle Twinkle Lucky Stars
◎年  代 1985
◎产  地 中国香港
◎类  别 笑剧 / 行动
◎语  言 粤语
◎上映日期 1985-08-15
◎IMDb评分 6.2/10 (3963人评价)
◎IMDb链接 https://www.imdb.com/title/tt0090342/
◎豆瓣评分 7.4/10 (23628人评价)
◎豆瓣链接 https://movie.douban.com/subject/1303717/
◎片  长 96分钟
◎导  演 洪金宝 Sammo Hung Kam-Bo
◎编  剧 黄炳耀 Barry Wong
       司徒卓汉 Chuek-Hon Szeto
◎演  员 洪金宝 Sammo Hung Kam-Bo
       吴耀汉 Richard Ng
       冯淬帆 Stanley Fung
       苗侨伟 Kiu Wai Miu
       曾志伟 Eric Tsang
       胡慧中 Sibelle Hu
       成龙 Jackie Chan
       元彪 Biao Yuen
       刘德华 Andy Lau
       岑建勋 John Sham
       关之琳 Rosamund Kwan
       陈友 Anthony Chan
       午马 Wu Ma
       仓田保昭 Yasuaki Kurata
       吴君如 Sandra Ng
       惠英红 Kara Wai Ying Hung
       杨紫琼 Michelle Yeoh
       曹达华 Tat-wah Cho
       理查德·诺顿 Richard Norton
       林正英 Ching-Ying Lam
       楼南光 Billy Lau
       钟发 Fat Chung
       白彪 Jason Pai
       秦祥林 Charlie Chin
       田俊 James Tien Chun
       马斯晨 Season Ma
       吴夏萍 Ha Ping Ng
       刘家荣 Chia Yung Liu
       黄锦燊 Melvin Wong
       戚美珍 Jaime Mei Chun Chik
       高飞 Phillip Ko
       狄威 Dick Wei
       林子祥 George Lam
       叶德娴 Deanie Ip
       张坚庭 Alfred Cheung
       姜大卫 David Chiang
       王晶 Jing Wong
       陈百祥 Pak-cheung Chan
       陈欣健 Philip Chan
       李赛凤 Moon Lee
       王小凤 Pauline Wong
       钱小豪 Siu-hou Chin
       杨雪仪 Cher Yeung
       钱慧仪 Winnie Chin
       杨群 Peter Yang Kwan
       刘天兰 Tina Liu
       惠天赐 Austin Wai
       何家劲 Kenny Ho
       孟海 Hoi Mang
       林威 Wai Lam
       太保 Po Tai
       梁家仁 Ka-Yan Leung
       陈果 Fruit Chan
       彭润祥 Yun-chiang Peng
       廖静妮 Jingni Liao
       李海生 Hoi Sang Lee
       黄岳泰 Arthur Wong
       马磐超 Eddie Ma
       陈果 Fruit Chan
       林正英 Ching-Ying Lam
       周少龙 Shao Lung Chou
◎简  介
  鹧鸪菜(洪金宝 饰)、犀牛皮(冯淬帆 饰)、大山地(吴耀汉 饰)、罗汉果(曾志伟)、花旗参(秦祥林 饰)、大力丸(成龙 饰)、巴巴拉(胡慧中 饰)和维奇(元彪 饰)等差人兄弟一路放大假出外旅游,岂料他们刚刚到达目标地就被下属告诉顿时回港履利用命。                                    
                                本来,香港巨贾冯师长遭杀手杀戮,他的女儿冯蜜斯(关之琳 饰)和冯师长的好友刘师长现在随时都有生命危险。因而,为了庇护两人,大力丸和助手贴身庇护刘师长;而年轻标致的冯蜜斯则住到巴巴拉的家由犀牛皮等人庇护,众人都想和这位标致开放到冯蜜斯搭上关系;维奇和巴巴拉住入冯家勾引杀手中计。夏日里,连续串爆笑惊险的排场上演了!
  1. ##### MediaInfo ######
  2. General
  3. Unique ID                                : 96220237683145062237470440207120249595 (0x486357FCC9F5D9574496EAAA84CAB2FB)
  4. Complete name                            : Twinkle.Twinkle.Lucky.Stars.1985.BluRay.1080p.DTS-HD.MA.1.0.x265.10bit-ALT.mkv
  5. Format                                   : Matroska
  6. Format version                           : Version 4
  7. File size                                : 13.5 GiB
  8. Duration                                 : 1 h 47 min
  9. Overall bit rate mode                    : Variable
  10. Overall bit rate                         : 18.0 Mb/s
  11. Encoded date                             : UTC 2022-07-26 12:59:57
  12. Writing application                      : mkvmerge v49.0.0 ('Sick Of Losing Soulmates') 64-bit
  13. Writing library                          : libebml v1.4.0 + libmatroska v1.6.1
  14. Video
  15. ID                                       : 1
  16. Format                                   : HEVC
  17. Format/Info                              : High Efficiency Video Coding
  18. Format profile                           : Main [email protected]@High
  19. Codec ID                                 : V_MPEGH/ISO/HEVC
  20. Duration                                 : 1 h 47 min
  21. Bit rate                                 : 17.2 Mb/s
  22. Width                                    : 1 920 pixels
  23. Height                                   : 1 036 pixels
  24. Display aspect ratio                     : 1.85:1
  25. Frame rate mode                          : Constant
  26. Frame rate                               : 23.976 (24000/1001/53875) FPS
  27. Color space                              : YUV
  28. Chroma subsampling                       : 4:2:0
  29. Bit depth                                : 10 bits
  30. Bits/(Pixel*Frame)                       : 0.360
  31. Stream size                              : 12.8 GiB (95%)
  32. Title                                    : HEVC, [email protected]@High, 24/1.001 fps @ 17152 kbps
  33. Writing library                          : x265 3.5+36-1f2c8da77:[Windows][GCC 11.2.0][64 bit] 10bit
  34. Encoding settings                        : cpuid=538751111039 / frame-threads=4 / numa-pools=20 / wpp / no-pmode / no-pme / no-psnr / no-ssim / log-level=2 / input-csp=1 / input-res=1920x1036 / interlace=0 / total-frames=154160 / level-idc=51 / high-tier=1 / uhd-bd=0 / ref=5 / no-allow-non-conformance / no-repeat-headers / annexb / no-aud / no-eob / no-eos / no-hrd / info / hash=0 / no-temporal-layers / open-gop / min-keyint=24 / keyint=240 / gop-lookahead=0 / bframes=6 / b-adapt=2 / b-pyramid / bframe-bias=0 / rc-lookahead=40 / lookahead-slices=0 / NTM4NzU=uuDQuD2mJt9fsCf / scenecut=40 / no-hist-scenecut / radl=0 / no-splice / no-intra-refresh / ctu=32 / min-cu-size=8 / no-rect / no-amp / max-tu-size=32 / tu-inter-depth=3 / tu-intra-depth=3 / limit-tu=4 / rdoq-level=2 / dynamic-rd=0.00 / no-ssim-rd / signhide / no-tskip / nr-intra=0 / nr-inter=0 / no-constrained-intra / no-strong-intra-smoothing / max-merge=4 / limit-refs=1 / limit-modes / me=3 / subme=4 / merange=25 / temporal-mvp / no-frame-dup / no-hme / weightp / weightb / no-analyze-src-pics / deblock=-3:-3 / no-sao / no-sao-non-deblock / rd=6 / selective-sao=0 / no-early-skip / rskip / no-fast-intra / no-tskip-fast / no-cu-lossless / b-intra / no-splitrd-skip / rdpenalty=0 / psy-rd=2.00 / psy-rdoq=1.00 / no-rd-refine / no-lossless / cbqpoffs=-2 / crqpoffs=-2 / rc=crf / crf=22.5 / qcomp=0.65 / qpstep=4 / stats-write=0 / stats-read=0 / vbv-maxrate=80000 / vbv-bufsize=80000 / vbv-init=0.9 / min-vbv-fullness=50.0 / max-vbv-fullness=80.0 / crf-max=0.0 / crf-min=0.0 / ipratio=1.40 / pbratio=1.30 / aq-mode=2 / aq-strength=0.85 / cutree / zone-count=0 / no-strict-cbr / qg-size=32 / no-rc-grain / qpmax=69 / qpmin=0 / no-const-vbv / sar=1 / overscan=0 / videoformat=5 / range=0 / colorprim=1 / transfer=1 / colormatrix=1 / chromaloc=0 / display-window=0 / cll=0,0 / min-luma=0 / max-luma=1023 / log2-max-poc-lsb=8 / vui-timing-info / vui-hrd-info / slices=1 / no-opt-qp-pps / no-opt-ref-list-length-pps / no-multi-pass-opt-rps / scenecut-bias=0.05 / hist-threshold=0.03 / no-opt-cu-delta-qp / no-aq-motion / no-hdr10 / no-hdr10-opt / no-dhdr10-opt / no-idr-recovery-sei / analysis-reuse-level=0 / analysis-save-reuse-level=0 / analysis-load-reuse-level=0 / scale-factor=0 / refine-intra=0 / refine-inter=0 / refine-mv=1 / refine-ctu-distortion=0 / no-limit-sao / ctu-info=0 / no-lowpass-dct / refine-analysis-type=0 / copy-pic=1 / max-ausize-factor=1.0 / no-dynamic-refine / no-single-sei / no-hevc-aq / no-svt / no-field / qp-adaptation-range=1.00 / scenecut-aware-qp=0conformance-window-offsets / right=0 / bottom=0 / NTM4NzU= / decoder-max-rate=0 / no-vbv-live-multi-pass
  35. Language                                 : English
  36. Default                                  : Yes
  37. Forced                                   : No
  38. Color range                              : Limited
  39. Color primaries                          : BT.709
  40. Transfer characteristics                 : BT.709
  41. Matrix coefficients                      : BT.709
  42. Audio
  43. ID                                       : 2
  44. Format                                   : DTS XLL
  45. Format/Info                              : Digital Theater Systems
  46. Commercial name                          : DTS-HD Master Audio
  47. Codec ID                                 : A_DTS
  48. Duration                                 : 1 h 47 min
  49. Bit rate mode                            : Variable
  50. Bit rate                                 : 861 kb/s
  51. Channel(s)                               : 1 channel
  52. Channel layout                           : C
  53. Sampling rate                            : 48.0 kHz
  54. Frame rate                               : 93.750 FPS (512 SPF)
  55. Bit depth                                : 16 bits
  56. Compression mode                         : Lossless
  57. Stream size                              : 660 MiB (5%)
  58. Title                                    : Mandarin DTS-HD Master Audio 1.0 @ 861 kbps
  59. Language                                 : Chinese
  60. Default                                  : Yes
  61. Forced                                   : No
  62. Menu
  63. 00:00:00.000                             : en:第 01 章
  64. 00:08:20.417                             : en:第 02 章
  65. 00:17:07.860                             : en:第 03 章
  66. 00:25:01.834                             : en:第 04 章
  67. 00:34:20.141                             : en:第 05 章
  68. 00:44:40.094                             : en:第 06 章
  69. 00:54:57.669                             : en:第 07 章
  70. 01:02:53.311                             : en:第 08 章
  71. 01:10:54.333                             : en:第 09 章
  72. 01:20:13.017                             : en:第 10 章
  73. 01:29:24.276                             : en:第 11 章
  74. 01:37:53.659                             : en:第 12 章
复制代码

















保举请利用qBittorrent,utorrent,transmission等标准BT软件下载!以获得最快速度。奉求保种!





回复

使用道具 举报

懒得打字嘛,点击右侧快捷回复 【右侧内容,后台自定义】
您需要登录后才可以回帖 登录 | 立即加入

本版积分规则

Archiver|小黑屋| 蓝光电影网 |网站地图

Copyright © 2021 Comsenz Inc. Powered by 蓝光电影网

蓝光电影网

本站内容由用户自主分享和转载自互联网,转载目的在于传递更多信息,并不代表本网赞同其观点和对其真实性负责。

如有侵权、违反国家法律政策行为,请联系我们,我们会第一时间及时清除和处理!

举报反馈邮箱:[email protected]

快速回复 返回顶部 返回列表