找回密码

蓝光电影网

查看: 55|回复: 0

[剧情] 天与地[国粤多音轨/简繁字幕].Tian.Di.1994.1080p.BluRay.DD5.1.2Audio.x265-10bit-BATHD 7.80GB

[复制链接]
蓝光币
7
发表于 2022-7-28 01:50:05 | 显示全部楼层 |阅读模式


◎标  题 天与地
◎译  名 Tian Di
◎片  名 天與地
◎年  代 1994
◎产  地 中国香港 / 美国
◎类  别 剧情
◎语  言 粤语 / 汉语普通话
◎上映日期 1994-07-21(中国香港)
◎IMDb评分 6/10 (187人评价)
◎IMDb链接 https://www.imdb.com/title/tt0111423/
◎豆瓣评分 7.2/10 (6649人评价)
◎豆瓣链接 https://movie.douban.com/subject/1305829/
◎片  长 104分钟
◎导  演 黎大炜 David Lai
◎编  剧 陈子慧 Che Wei Chan
◎演  员 刘德华 Andy Lau
       刘松仁 Damian Lau
       陈少霞 Cherie Chan
       顾宝明 Pao-Ming Ku
       金士杰 Shih-Chieh King
       俞飞鸿 Faye Yu
       刘德华 Andy Lau
       林敏怡 Man Yee Lam
       李屏宾 Mark Lee Ping Bing
       樊恭荣 Kung Wing Fan
       雷楚雄 Bill Lui
◎简  介
  得一笔奖学金帮助,张一鹏(刘德华)获得去法国留学进修的机遇,学成归国后,他被录用为上海市禁烟(雅片)行动的第一专员。                                    
                                张在法经西方文化与代价观陶冶,非常墨客意气,刚携妻子(陈少霞)来到上海,便展开一系列行动,不知中国与西方国家国情有别,难有健全的法令系统及社会次序:差人署长倪坤(顾宝明)和大毒枭戴济民(刘松仁)是换帖兄弟,两人一路控制着包括销售雅片在内的上海一切的不法买卖,见数次向张行贿无果,他们发毒誓要让张生不如死。
  1. ##### MediaInfo ######
  2. General
  3. Unique ID                                : 332734521259899017882878787155569815128 (0xFA52567A3AD5ADE76A64FAA0EB122E58)
  4. Complete name                            : Tian.Di.1994.1080p.BluRay.DD5.1.2Audio.x265-10bit-BATHD.mkv
  5. Format                                   : Matroska
  6. Format version                           : Version 4
  7. File size                                : 7.80 GiB
  8. Duration                                 : 1 h 44 min
  9. Overall bit rate                         : 10.7 Mb/s
  10. Movie name                               : Tian Di 1994 1080p BluRay DD5.1 2Audio x265-10bit-HDS
  11. Encoded date                             : UTC 2022-07-25 23:55:18
  12. Writing application                      : mkvmerge v67.0.0 ('Under Stars') 64-bit
  13. Writing library                          : libebml v1.4.2 + libmatroska v1.6.4
  14. Video
  15. ID                                       : 1
  16. Format                                   : HEVC
  17. Format/Info                              : High Efficiency Video Coding
  18. Format profile                           : Main [email protected]@High
  19. Codec ID                                 : V_MPEGH/ISO/HEVC
  20. Duration                                 : 1 h 44 min
  21. Bit rate                                 : 9 653 kb/s
  22. Width                                    : 1 920 pixels
  23. Height                                   : 1 080 pixels
  24. Display aspect ratio                     : 16:9
  25. Frame rate mode                          : Constant
  26. Frame rate                               : 24.000 FPS
  27. Color space                              : YUV
  28. Chroma subsampling                       : 4:2:0
  29. Bit depth                                : 10 bits
  30. Bits/(Pixel*Frame)                       : 0.194
  31. Stream size                              : 7.02 GiB (90%)
  32. Title                                    : @HDSky
  33. Writing library                          : x265 - H.265/HEVC codec
  34. Default                                  : Yes
  35. Forced                                   : No
  36. Audio #1
  37. ID                                       : 2
  38. Format                                   : AC-3
  39. Format/Info                              : Audio Coding 3
  40. Commercial name                          : Dolby Digital
  41. Codec ID                                 : A_AC3
  42. Duration                                 : 1 h 44 min
  43. Bit rate mode                            : Constant
  44. Bit rate                                 : 640 kb/s
  45. Channel(s)                               : 6 channels
  46. Channel layout                           : L R C LFE Ls Rs
  47. Sampling rate                            : 48.0 kHz
  48. Frame rate                               : 31.250 FPS (1536 SPF)
  49. Compression mode                         : Lossy
  50. Stream size                              : 476 MiB (6%)
  51. Title                                    : Cantonese
  52. Language                                 : Chinese
  53. Service kind                             : Complete Main
  54. Default                                  : Yes
  55. Forced                                   : No
  56. Audio #2
  57. ID                                       : 3
  58. Format                                   : AC-3
  59. Format/Info                              : Audio Coding 3
  60. Commercial name                          : Dolby Digital
  61. Codec ID                                 : A_AC3
  62. Duration                                 : 1 h 44 min
  63. Bit rate mode                            : Constant
  64. Bit rate                                 : 384 kb/s
  65. Channel(s)                               : 2 channels
  66. Channel layout                           : L R
  67. Sampling rate                            : 48.0 kHz
  68. Frame rate                               : 31.250 FPS (1536 SPF)
  69. Compression mode                         : Lossy
  70. Stream size                              : 286 MiB (4%)
  71. Title                                    : Mandarin
  72. Language                                 : Chinese
  73. Service kind                             : Complete Main
  74. Default                                  : Yes
  75. Forced                                   : No
  76. Text #1
  77. ID                                       : 4
  78. Format                                   : PGS
  79. Muxing mode                              : zlib
  80. Codec ID                                 : S_HDMV/PGS
  81. Codec ID/Info                            : Picture based subtitle format used on BDs/HD-DVDs
  82. Duration                                 : 1 h 44 min
  83. Bit rate                                 : 41.0 kb/s
  84. Count of elements                        : 3477
  85. Stream size                              : 30.7 MiB (0%)
  86. Title                                    : CHS
  87. Language                                 : Chinese
  88. Default                                  : Yes
  89. Forced                                   : No
  90. Text #2
  91. ID                                       : 5
  92. Format                                   : PGS
  93. Muxing mode                              : zlib
  94. Codec ID                                 : S_HDMV/PGS
  95. Codec ID/Info                            : Picture based subtitle format used on BDs/HD-DVDs
  96. Duration                                 : 1 h 44 min
  97. Bit rate                                 : 41.3 kb/s
  98. Count of elements                        : 3477
  99. Stream size                              : 31.0 MiB (0%)
  100. Title                                    : CHT
  101. Language                                 : Chinese
  102. Default                                  : Yes
  103. Forced                                   : No
  104. Menu
  105. 00:00:00.000                             : en:第 01 章
  106. 00:08:28.667                             : en:第 02 章
  107. 00:16:37.083                             : en:第 03 章
  108. 00:25:12.167                             : en:第 04 章
  109. 00:33:40.000                             : en:第 05 章
  110. 00:42:39.125                             : en:第 06 章
  111. 00:52:03.625                             : en:第 07 章
  112. 01:00:38.125                             : en:第 08 章
  113. 01:07:57.792                             : en:第 09 章
  114. 01:17:15.125                             : en:第 10 章
  115. 01:26:59.583                             : en:第 11 章
  116. 01:34:16.875                             : en:第 12 章
复制代码

















保举请利用qBittorrent,utorrent,transmission等标准BT软件下载!以获得最快速度。奉求保种!





回复

使用道具 举报

懒得打字嘛,点击右侧快捷回复 【右侧内容,后台自定义】
您需要登录后才可以回帖 登录 | 立即加入

本版积分规则

Archiver|小黑屋| 蓝光电影网 |网站地图

Copyright © 2021 Comsenz Inc. Powered by 蓝光电影网

蓝光电影网

本站内容由用户自主分享和转载自互联网,转载目的在于传递更多信息,并不代表本网赞同其观点和对其真实性负责。

如有侵权、违反国家法律政策行为,请联系我们,我们会第一时间及时清除和处理!

举报反馈邮箱:[email protected]

快速回复 返回顶部 返回列表