找回密码

蓝光电影网

查看: 20|回复: 0

[剧情] 谜一样的双眼[简繁英字幕].Secret.in.Their.Eyes.20150.BluRay.1080p.DTS-HD.MA5.1.x265.10bit-ALT 7.44GB

[复制链接]
蓝光币
7
发表于 2022-7-28 01:50:09 | 显示全部楼层 |阅读模式


◎标  题 谜一样的双眼
◎译  名 谜情追凶(港) / 沉默的双眼(台) / 他们眼中的奥秘
◎片  名 Secret in Their Eyes
◎年  代 2015
◎产  地 美国
◎类  别 剧情 / 悬疑 / 惊悚
◎语  言 英语
◎上映日期 2015-11-20(美国)
◎IMDb评分 6.3/10 (46728人评价)
◎IMDb链接 https://www.imdb.com/title/tt1741273/
◎豆瓣评分 6.4/10 (9619人评价)
◎豆瓣链接 https://movie.douban.com/subject/25885742/
◎片  长 111分钟
◎导  演 比利·雷 Billy Ray
◎编  剧 比利·雷 Billy Ray
       爱德华多·萨切里 Eduardo Sacheri
       胡安·何塞·坎帕内利亚 Juan José Campanella
◎演  员 妮可·基德曼 Nicole Kidman
       朱莉娅·罗伯茨 Julia Roberts
       迈克尔·凯利 Michael Kelly
       迪恩·诺里斯 Dean Norris
       切瓦特·埃加福 Chiwetel Ejiofor
       琳登·史姑娘 Lyndon Smith
       佐伊·格瑞艾姆 Zoe Graham
       乔·科尔 Joe Cole
       唐·哈维 Don Harvey
       罗斯·帕特里奇 Ross Partridge
       约翰·帕帕席德拉 John Papsidera
       大卫·皮尔 David Pearl
       尼科·尼科特拉 Niko Nicotera
       马克·约翰逊 Mark Johnson
       胡安·何塞·坎帕内利亚 Juan José Campanella
◎标  签 悬疑 / 美国 / 犯罪 / 翻拍 / 剧情 / 人性 / 2015 / 惊悚
◎简  介
  雷(切瓦特·埃加福特 Chiwetel Ejiofor 饰)是一位很是出色的FBI捕快,同伴杰西(朱莉娅·罗伯茨 Julia Roberts 饰)和检察官克莱尔(妮可·基德曼 Nicole Kidman 饰)是他的好友,三人组成了坚不成摧的铁三角,惩奸除恶,所向无敌。但是,某日,杰西的女儿被残暴的杀戮了,女儿的死带给了杰西庞大的精神创伤,三人也就此渐渐各奔前程。                                    
                                一晃眼十三年曩昔,昔时耸人听闻的凶杀案现在已经渐渐尘封,可它给人们带来的危险却并没有削减分毫,凶手仍然清闲法外。一次偶然中,雷发现了某些新的线索,这些线索让他起头重新观察昔时的案件,此时的雷并不晓得的是,他行将开启的,是隐藏了怎样可怕奥秘的潘多拉魔盒。
  1. ##### MediaInfo ######
  2. General
  3. Unique ID                                : 259438043791832240858172738931123690836 (0xC32DF32130B7030075EAD7E517AA1D54)
  4. Complete name                            : Secret.in.Their.Eyes.20150.BluRay.1080p.DTS-HD.MA5.1.x265.10bit-ALT.mkv
  5. Format                                   : Matroska
  6. Format version                           : Version 4
  7. File size                                : 7.44 GiB
  8. Duration                                 : 1 h 51 min
  9. Overall bit rate mode                    : Variable
  10. Overall bit rate                         : 9 534 kb/s
  11. Encoded date                             : UTC 2022-01-13 08:29:40
  12. Writing application                      : mkvmerge v49.0.0 ('Sick Of Losing Soulmates') 64-bit
  13. Writing library                          : libebml v1.4.0 + libmatroska v1.6.1
  14. Video
  15. ID                                       : 1
  16. Format                                   : HEVC
  17. Format/Info                              : High Efficiency Video Coding
  18. Format profile                           : Main [email protected]@High
  19. Codec ID                                 : V_MPEGH/ISO/HEVC
  20. Duration                                 : 1 h 51 min
  21. Bit rate                                 : 6 135 kb/s
  22. Width                                    : 1 920 pixels
  23. Height                                   : 800 pixels
  24. Display aspect ratio                     : 2.40:1
  25. Frame rate mode                          : Constant
  26. Frame rate                               : 23.976 (24000/1001/53875) FPS
  27. Color space                              : YUV
  28. Chroma subsampling                       : 4:2:0
  29. Bit depth                                : 10 bits
  30. Bits/(Pixel*Frame)                       : 0.167
  31. Stream size                              : 4.79 GiB (64%)
  32. Title                                    : HEVC, [email protected]@High, 24/1.001 fps @ 6135 kbps
  33. Writing library                          : x265 3.4+14-gd419c7152:[Windows][GCC 10.2.0][64 bit] 10bit
  34. Encoding settings                        : cpuid=538751111039 / frame-threads=4 / numa-pools=20 / wpp / pmode / pme / no-psnr / no-ssim / log-level=2 / input-csp=1 / input-res=1920x800 / interlace=0 / total-frames=160632 / level-idc=51 / high-tier=1 / uhd-bd=0 / ref=5 / no-allow-non-conformance / no-repeat-headers / annexb / no-aud / no-hrd / info / hash=0 / no-temporal-layers / open-gop / min-keyint=24 / keyint=240 / gop-lookahead=0 / bframes=6 / b-adapt=2 / b-pyramid / bframe-bias=0 / rc-lookahead=40 / lookahead-slices=0 / NTM4NzU=uuDQuD2mJt9fsCf / scenecut=40 / hist-scenecut=0 / radl=0 / no-splice / no-intra-refresh / ctu=32 / min-cu-size=8 / no-rect / no-amp / max-tu-size=32 / tu-inter-depth=3 / tu-intra-depth=3 / limit-tu=4 / rdoq-level=2 / dynamic-rd=0.00 / no-ssim-rd / signhide / no-tskip / nr-intra=0 / nr-inter=0 / no-constrained-intra / no-strong-intra-smoothing / max-merge=4 / limit-refs=1 / limit-modes / me=3 / subme=4 / merange=25 / temporal-mvp / no-frame-dup / no-hme / weightp / weightb / no-analyze-src-pics / deblock=-3:-3 / no-sao / no-sao-non-deblock / rd=6 / selective-sao=0 / no-early-skip / rskip / no-fast-intra / no-tskip-fast / no-cu-lossless / b-intra / no-splitrd-skip / rdpenalty=0 / psy-rd=2.00 / psy-rdoq=1.00 / no-rd-refine / no-lossless / cbqpoffs=0 / crqpoffs=0 / rc=crf / crf=17.0 / qcomp=0.65 / qpstep=4 / stats-write=0 / stats-read=0 / vbv-maxrate=80000 / vbv-bufsize=80000 / vbv-init=0.9 / crf-max=0.0 / crf-min=0.0 / ipratio=1.40 / pbratio=1.30 / aq-mode=2 / aq-strength=0.85 / cutree / zone-count=0 / no-strict-cbr / qg-size=32 / no-rc-grain / qpmax=69 / qpmin=0 / no-const-vbv / sar=1 / overscan=0 / videoformat=5 / range=0 / colorprim=1 / transfer=1 / colormatrix=1 / chromaloc=0 / display-window=0 / cll=0,0 / min-luma=0 / max-luma=1023 / log2-max-poc-lsb=8 / vui-timing-info / vui-hrd-info / slices=1 / no-opt-qp-pps / no-opt-ref-list-length-pps / no-multi-pass-opt-rps / scenecut-bias=0.05 / hist-threshold=0.03 / no-opt-cu-delta-qp / no-aq-motion / no-hdr10 / no-hdr10-opt / no-dhdr10-opt / no-idr-recovery-sei / analysis-reuse-level=0 / analysis-save-reuse-level=0 / analysis-load-reuse-level=0 / scale-factor=0 / refine-intra=0 / refine-inter=0 / refine-mv=1 / refine-ctu-distortion=0 / no-limit-sao / ctu-info=0 / no-lowpass-dct / refine-analysis-type=0 / copy-pic=1 / max-ausize-factor=1.0 / no-dynamic-refine / no-single-sei / no-hevc-aq / no-svt / no-field / qp-adaptation-range=1.00 / no-scenecut-aware-qpconformance-window-offsets / right=0 / bottom=0 / NTM4NzU= / decoder-max-rate=0
  35. Language                                 : English
  36. Default                                  : Yes
  37. Forced                                   : No
  38. Color range                              : Limited
  39. Color primaries                          : BT.709
  40. Transfer characteristics                 : BT.709
  41. Matrix coefficients                      : BT.709
  42. Audio
  43. ID                                       : 2
  44. Format                                   : DTS XLL
  45. Format/Info                              : Digital Theater Systems
  46. Commercial name                          : DTS-HD Master Audio
  47. Codec ID                                 : A_DTS
  48. Duration                                 : 1 h 51 min
  49. Bit rate mode                            : Variable
  50. Bit rate                                 : 3 303 kb/s
  51. Channel(s)                               : 6 channels
  52. Channel layout                           : C L R Ls Rs LFE
  53. Sampling rate                            : 48.0 kHz
  54. Frame rate                               : 93.750 FPS (512 SPF)
  55. Bit depth                                : 24 bits
  56. Compression mode                         : Lossless
  57. Stream size                              : 2.58 GiB (35%)
  58. Title                                    : English DTS-HD Master Audio 5.1 @ 3303 kbps
  59. Language                                 : English
  60. Default                                  : Yes
  61. Forced                                   : No
  62. Text #1
  63. ID                                       : 3
  64. Format                                   : PGS
  65. Codec ID                                 : S_HDMV/PGS
  66. Codec ID/Info                            : Picture based subtitle format used on BDs/HD-DVDs
  67. Duration                                 : 1 h 44 min
  68. Bit rate                                 : 40.4 kb/s
  69. Count of elements                        : 3297
  70. Stream size                              : 30.2 MiB (0%)
  71. Title                                    : Eng/SUP
  72. Language                                 : English
  73. Default                                  : No
  74. Forced                                   : No
  75. Text #2
  76. ID                                       : 4
  77. Format                                   : PGS
  78. Codec ID                                 : S_HDMV/PGS
  79. Codec ID/Info                            : Picture based subtitle format used on BDs/HD-DVDs
  80. Duration                                 : 1 h 43 min
  81. Bit rate                                 : 28.8 kb/s
  82. Count of elements                        : 2918
  83. Stream size                              : 21.2 MiB (0%)
  84. Title                                    : Chs/SUP  简体
  85. Language                                 : Chinese
  86. Default                                  : Yes
  87. Forced                                   : No
  88. Text #3
  89. ID                                       : 5
  90. Format                                   : PGS
  91. Codec ID                                 : S_HDMV/PGS
  92. Codec ID/Info                            : Picture based subtitle format used on BDs/HD-DVDs
  93. Duration                                 : 1 h 43 min
  94. Bit rate                                 : 30.1 kb/s
  95. Count of elements                        : 2918
  96. Stream size                              : 22.2 MiB (0%)
  97. Title                                    : Cht/SUP  繁体
  98. Language                                 : Chinese
  99. Default                                  : No
  100. Forced                                   : No
  101. Menu
  102. 00:00:00.000                             : en:第 01 章
  103. 00:05:12.519                             : en:第 02 章
  104. 00:10:52.234                             : en:第 03 章
  105. 00:18:20.766                             : en:第 04 章
  106. 00:22:41.401                             : en:第 05 章
  107. 00:26:47.730                             : en:第 06 章
  108. 00:34:30.860                             : en:第 07 章
  109. 00:42:39.639                             : en:第 08 章
  110. 00:46:31.789                             : en:第 09 章
  111. 00:51:59.490                             : en:第 10 章
  112. 00:56:16.498                             : en:第 11 章
  113. 01:00:17.947                             : en:第 12 章
  114. 01:05:47.902                             : en:第 13 章
  115. 01:12:34.932                             : en:第 14 章
  116. 01:17:29.645                             : en:第 15 章
  117. 01:21:32.845                             : en:第 16 章
  118. 01:25:23.118                             : en:第 17 章
  119. 01:31:16.136                             : en:第 18 章
  120. 01:37:19.500                             : en:第 19 章
  121. 01:45:38.122                             : en:第 20 章
复制代码

















保举请利用qBittorrent,utorrent,transmission等标准BT软件下载!以获得最快速度。奉求保种!





回复

使用道具 举报

懒得打字嘛,点击右侧快捷回复 【右侧内容,后台自定义】
您需要登录后才可以回帖 登录 | 立即加入

本版积分规则

Archiver|小黑屋| 蓝光电影网 |网站地图

Copyright © 2021 Comsenz Inc. Powered by 蓝光电影网

蓝光电影网

本站内容由用户自主分享和转载自互联网,转载目的在于传递更多信息,并不代表本网赞同其观点和对其真实性负责。

如有侵权、违反国家法律政策行为,请联系我们,我们会第一时间及时清除和处理!

举报反馈邮箱:[email protected]

快速回复 返回顶部 返回列表