找回密码

蓝光电影网

查看: 39|回复: 3

[剧情] 浪客剑心 最终章 追忆篇[简繁字幕].Rurouni.Kenshin.The.Beginning.2021.BluRay.1080p.TrueHD7.1.x265.10bit-ALT 8.96GB

[复制链接]
蓝光币
7
发表于 2022-7-28 01:50:19 | 显示全部楼层 |阅读模式


◎标  题 浪客剑心 终极章 追思篇
◎译  名 浪客剑心:终极章之追思篇 / 浪客剑心 真人版5 / 神剑闯江湖:The Beginning / るろうに剣心 最終章 追憶編 / るろうに剣心 続編5 / Rurouni Kenshin: The Beginning
◎片  名 るろうに剣心 最終章 The Beginning
◎年  代 2021
◎产  地 日本
◎类  别 剧情 / 行动 / 冒险
◎语  言 日语
◎上映日期 2021-06-04(日本) / 2021-07-30(日本收集)
◎IMDb评分 7.5/10 (6717人评价)
◎IMDb链接 https://www.imdb.com/title/tt11991748/
◎豆瓣评分 8.4/10 (20994人评价)
◎豆瓣链接 https://movie.douban.com/subject/33407124/
◎片  长 137分钟
◎导  演 大友启史 Keishi Ohtomo
◎编  剧 和月伸宏 Nobuhiro Watsuki
       大友启史 Keishi Ohtomo
◎演  员 佐藤健 Takeru Satoh
       有村架纯 Kasumi Arimura
       高桥平生 Issey Takahashi
       北村一辉 Kazuki Kitamura
       江口洋介 Yôsuke Eguchi
       村上虹郎 Nijiro Murakami
       安藤政信 Masanobu Andô
       大西信满 SHIMA OHNISHI
       池内万作 Mansaku Ikeuchi
       藤本隆宏 Takahiro Fujimoto
       和田聪宏 Toshihiro Wada
       中村达也 Tatsuya Nakamura
       荒木飞羽 Towa Araki
       洼田正孝 Masataka Kubota
       平野天生 Kinari Hirano
       堀田真由 Mayu Hotta
       一之濑亘 Wataru Ichinose
       石田法嗣 Hoshi Ishida
       成田瑛基 Eiki Narita
       奥野瑛太 Eita Okuno
       渡边真起子 Makiko Watanabe
       武井咲 Emi Takei
       新田真剑佑 Mackenyu Arata
       青木高尚 Munetaka Aoki
       苍井优 Yu Aoi
       伊势谷友介 Yûsuke Iseya
       土屋太凤 Tao Tsuchiya
       三浦涼介 Ryosuke Miura
       音尾琢真 Takuma Otoo
       鹤见辰吾 Shingo Tsurumi
       华夏丈雄 Takeo Nakahara
◎标  签 日本 / 浪客剑心 / 行动 / 漫画改编 / 佐藤健 / 真人版 / 漫改 / 军人
◎简  介
  幕府时代末期,外忧内患,山河动乱,百姓生活困苦,且生命时辰遭到威胁。少年心太因其善良纯洁之心感动飞天御剑流高手比古清十郎,被其支出门下进修剑法,更名剑心。                                    
                                在国家危难之际,年轻的剑心胸揣改变时代的胡想下山,加入奇兵队,往后更被桂小五郎归入麾下,以刽子手的身份为时代的变化尽一份微薄之力。年仅15岁的剑心接连刺杀多名政府要员,令对手闻风丧胆,直到某一天,一位下级军人在他的脸上留下一道没法愈合的伤疤。                                    
                                来至京都寻觅爱人的雪代巴相逢了剑心,正是眼前这名消瘦的男人将爱人从她的生射中带走。巴走入剑心的生活,随之履历了政治斗争的血雨腥风和故乡乡下的安好淡雅。也许她正是剑心那把狂舞之刀的刀鞘,但在大时代的布景之下,两小我的渺小幸运一触即碎……
  1. ##### MediaInfo ######
  2. General
  3. Unique ID                                : 322306461548674517802217806375632188713 (0xF279F77040FF72CDAAE57C1763C73529)
  4. Complete name                            : Rurouni.Kenshin.The.Beginning.2021.BluRay.1080p.TrueHD7.1.x265.10bit-ALT.mkv
  5. Format                                   : Matroska
  6. Format version                           : Version 4
  7. File size                                : 8.96 GiB
  8. Duration                                 : 2 h 16 min
  9. Overall bit rate mode                    : Variable
  10. Overall bit rate                         : 9 377 kb/s
  11. Encoded date                             : UTC 2022-01-05 07:41:58
  12. Writing application                      : mkvmerge v49.0.0 ('Sick Of Losing Soulmates') 64-bit
  13. Writing library                          : libebml v1.4.0 + libmatroska v1.6.1
  14. Video
  15. ID                                       : 1
  16. Format                                   : HEVC
  17. Format/Info                              : High Efficiency Video Coding
  18. Format profile                           : Main [email protected]@High
  19. Codec ID                                 : V_MPEGH/ISO/HEVC
  20. Duration                                 : 2 h 16 min
  21. Bit rate                                 : 4 646 kb/s
  22. Width                                    : 1 920 pixels
  23. Height                                   : 804 pixels
  24. Display aspect ratio                     : 2.40:1
  25. Frame rate mode                          : Constant
  26. Frame rate                               : 23.976 (24000/1001/53875) FPS
  27. Color space                              : YUV
  28. Chroma subsampling                       : 4:2:0
  29. Bit depth                                : 10 bits
  30. Bits/(Pixel*Frame)                       : 0.126
  31. Stream size                              : 4.44 GiB (50%)
  32. Title                                    : HEVC, [email protected]@High, 24/1.001 fps @ 4645 kbps
  33. Writing library                          : x265 3.4+14-gd419c7152:[Windows][GCC 10.2.0][64 bit] 10bit
  34. Encoding settings                        : cpuid=538751111039 / frame-threads=4 / numa-pools=16 / wpp / pmode / pme / no-psnr / no-ssim / log-level=2 / input-csp=1 / input-res=1920x804 / interlace=0 / total-frames=196868 / level-idc=51 / high-tier=1 / uhd-bd=0 / ref=5 / no-allow-non-conformance / no-repeat-headers / annexb / no-aud / no-hrd / info / hash=0 / no-temporal-layers / open-gop / min-keyint=24 / keyint=240 / gop-lookahead=0 / bframes=6 / b-adapt=2 / b-pyramid / bframe-bias=0 / rc-lookahead=40 / lookahead-slices=0 / NTM4NzU=uuDQuD2mJt9fsCf / scenecut=40 / hist-scenecut=0 / radl=0 / no-splice / no-intra-refresh / ctu=32 / min-cu-size=8 / no-rect / no-amp / max-tu-size=32 / tu-inter-depth=3 / tu-intra-depth=3 / limit-tu=4 / rdoq-level=2 / dynamic-rd=0.00 / no-ssim-rd / signhide / no-tskip / nr-intra=0 / nr-inter=0 / no-constrained-intra / no-strong-intra-smoothing / max-merge=4 / limit-refs=1 / limit-modes / me=3 / subme=4 / merange=25 / temporal-mvp / no-frame-dup / no-hme / weightp / weightb / no-analyze-src-pics / deblock=-3:-3 / no-sao / no-sao-non-deblock / rd=6 / selective-sao=0 / no-early-skip / rskip / no-fast-intra / no-tskip-fast / no-cu-lossless / b-intra / no-splitrd-skip / rdpenalty=0 / psy-rd=2.00 / psy-rdoq=1.00 / no-rd-refine / no-lossless / cbqpoffs=0 / crqpoffs=0 / rc=crf / crf=17.0 / qcomp=0.65 / qpstep=4 / stats-write=0 / stats-read=0 / vbv-maxrate=80000 / vbv-bufsize=80000 / vbv-init=0.9 / crf-max=0.0 / crf-min=0.0 / ipratio=1.40 / pbratio=1.30 / aq-mode=2 / aq-strength=0.85 / cutree / zone-count=0 / no-strict-cbr / qg-size=32 / no-rc-grain / qpmax=69 / qpmin=0 / no-const-vbv / sar=1 / overscan=0 / videoformat=5 / range=0 / colorprim=1 / transfer=1 / colormatrix=1 / chromaloc=0 / display-window=0 / cll=0,0 / min-luma=0 / max-luma=1023 / log2-max-poc-lsb=8 / vui-timing-info / vui-hrd-info / slices=1 / no-opt-qp-pps / no-opt-ref-list-length-pps / no-multi-pass-opt-rps / scenecut-bias=0.05 / hist-threshold=0.03 / no-opt-cu-delta-qp / no-aq-motion / no-hdr10 / no-hdr10-opt / no-dhdr10-opt / no-idr-recovery-sei / analysis-reuse-level=0 / analysis-save-reuse-level=0 / analysis-load-reuse-level=0 / scale-factor=0 / refine-intra=0 / refine-inter=0 / refine-mv=1 / refine-ctu-distortion=0 / no-limit-sao / ctu-info=0 / no-lowpass-dct / refine-analysis-type=0 / copy-pic=1 / max-ausize-factor=1.0 / no-dynamic-refine / no-single-sei / no-hevc-aq / no-svt / no-field / qp-adaptation-range=1.00 / no-scenecut-aware-qpconformance-window-offsets / right=0 / bottom=0 / NTM4NzU= / decoder-max-rate=0
  35. Language                                 : English
  36. Default                                  : Yes
  37. Forced                                   : No
  38. Color range                              : Limited
  39. Color primaries                          : BT.709
  40. Transfer characteristics                 : BT.709
  41. Matrix coefficients                      : BT.709
  42. Audio #1
  43. ID                                       : 2
  44. Format                                   : MLP FBA
  45. Format/Info                              : Meridian Lossless Packing FBA
  46. Commercial name                          : Dolby TrueHD
  47. Codec ID                                 : A_TRUEHD
  48. Duration                                 : 2 h 16 min
  49. Bit rate mode                            : Variable
  50. Bit rate                                 : 4 049 kb/s
  51. Maximum bit rate                         : 6 033 kb/s
  52. Channel(s)                               : 8 channels
  53. Channel layout                           : L R C LFE Ls Rs Lb Rb
  54. Sampling rate                            : 48.0 kHz
  55. Frame rate                               : 1 200.000 FPS (40 SPF)
  56. Compression mode                         : Lossless
  57. Stream size                              : 3.87 GiB (43%)
  58. Title                                    : Japanese Dolby TrueHD 7.1 @ 4497 kbps
  59. Language                                 : Japanese
  60. Default                                  : Yes
  61. Forced                                   : No
  62. Audio #2
  63. ID                                       : 3
  64. Format                                   : AC-3
  65. Format/Info                              : Audio Coding 3
  66. Commercial name                          : Dolby Digital
  67. Codec ID                                 : A_AC3
  68. Duration                                 : 2 h 16 min
  69. Bit rate mode                            : Constant
  70. Bit rate                                 : 448 kb/s
  71. Channel(s)                               : 6 channels
  72. Channel layout                           : L R C LFE Ls Rs
  73. Sampling rate                            : 48.0 kHz
  74. Frame rate                               : 31.250 FPS (1536 SPF)
  75. Compression mode                         : Lossy
  76. Stream size                              : 439 MiB (5%)
  77. Title                                    : Japanese Dolby Digital Audio 5.1 @ 640 kbps
  78. Language                                 : Japanese
  79. Service kind                             : Complete Main
  80. Default                                  : No
  81. Forced                                   : No
  82. Text #1
  83. ID                                       : 4
  84. Format                                   : PGS
  85. Codec ID                                 : S_HDMV/PGS
  86. Codec ID/Info                            : Picture based subtitle format used on BDs/HD-DVDs
  87. Duration                                 : 2 h 15 min
  88. Bit rate                                 : 142 kb/s
  89. Count of elements                        : 5844
  90. Stream size                              : 138 MiB (2%)
  91. Title                                    : Jpn/SUP
  92. Language                                 : Japanese
  93. Default                                  : No
  94. Forced                                   : No
  95. Text #2
  96. ID                                       : 5
  97. Format                                   : PGS
  98. Codec ID                                 : S_HDMV/PGS
  99. Codec ID/Info                            : Picture based subtitle format used on BDs/HD-DVDs
  100. Duration                                 : 2 h 15 min
  101. Bit rate                                 : 12.3 kb/s
  102. Count of elements                        : 1582
  103. Stream size                              : 11.9 MiB (0%)
  104. Title                                    : Chs/SUP  简体
  105. Language                                 : Chinese
  106. Default                                  : Yes
  107. Forced                                   : No
  108. Text #3
  109. ID                                       : 6
  110. Format                                   : PGS
  111. Codec ID                                 : S_HDMV/PGS
  112. Codec ID/Info                            : Picture based subtitle format used on BDs/HD-DVDs
  113. Duration                                 : 2 h 15 min
  114. Bit rate                                 : 12.6 kb/s
  115. Count of elements                        : 1582
  116. Stream size                              : 12.2 MiB (0%)
  117. Title                                    : Cht/SUP  繁体
  118. Language                                 : Chinese
  119. Default                                  : No
  120. Forced                                   : No
  121. Menu
  122. 00:00:00.000                             : en:第 01 章
  123. 00:11:51.586                             : en:第 02 章
  124. 00:43:30.399                             : en:第 03 章
  125. 01:02:15.565                             : en:第 04 章
  126. 01:08:22.056                             : en:第 05 章
  127. 01:15:17.096                             : en:第 06 章
  128. 01:22:32.072                             : en:第 07 章
  129. 01:32:47.479                             : en:第 08 章
  130. 01:49:04.163                             : en:第 09 章
  131. 01:57:34.005                             : en:第 10 章
  132. 02:06:55.858                             : en:第 11 章
  133. 02:12:22.935                             : en:第 12 章
复制代码

















保举请利用qBittorrent,utorrent,transmission等标准BT软件下载!以获得最快速度。奉求保种!





回复

使用道具 举报

蓝光币
3
发表于 7 天前 | 显示全部楼层
11111111111111111111111111111111111111111111111
回复 支持 反对

使用道具 举报

蓝光币
3
发表于 6 天前 | 显示全部楼层

楼主太厉害了!楼主,电影应该很好看我觉得蓝光电影网真是个好地方!
回复 支持 反对

使用道具 举报

蓝光币
3
发表于 5 天前 | 显示全部楼层

楼主太厉害了!楼主,电影应该很好看我觉得蓝光电影网真是个好地方!
回复 支持 反对

使用道具 举报

懒得打字嘛,点击右侧快捷回复 【右侧内容,后台自定义】
您需要登录后才可以回帖 登录 | 立即加入

本版积分规则

Archiver|小黑屋| 蓝光电影网 |网站地图

Copyright © 2021 Comsenz Inc. Powered by 蓝光电影网

蓝光电影网

本站内容由用户自主分享和转载自互联网,转载目的在于传递更多信息,并不代表本网赞同其观点和对其真实性负责。

如有侵权、违反国家法律政策行为,请联系我们,我们会第一时间及时清除和处理!

举报反馈邮箱:[email protected]

快速回复 返回顶部 返回列表