找回密码

蓝光电影网

查看: 99|回复: 0

[剧情] 铁血骑警[国粤英多音轨/简繁英字幕].Road.Warriors.1987.BluRay.1080p.2Audio.TrueHD.5.1.x265.10bit-ALT 10.34GB

[复制链接]
蓝光币
8
发表于 2022-7-28 01:50:35 | 显示全部楼层 |阅读模式


◎标  题 铁血骑警
◎译  名 Road Warriors
◎片  名 鐵血騎警
◎年  代 1987
◎产  地 中国香港
◎类  别 行动
◎语  言 粤语
◎上映日期 1987-09-09(中国香港)
◎IMDb评分 5.7/10 (41人评价)
◎IMDb链接 https://www.imdb.com/title/tt0094147/
◎豆瓣评分 6.8/10 (707人评价)
◎豆瓣链接 https://movie.douban.com/subject/1302748/
◎片  长 96分钟
◎导  演 李修贤 Danny Lee
◎编  剧 李修贤 Danny Lee
       冯瑞熊 James Fung
◎演  员 李修贤 Danny Lee
       卢惠光 Ken Lo
       陆剑明 Jamie Luk
       张继聪 Louis Cheung
       成奎安 Fui-On Shing
       黄霑 James Wong
       伍国健 Kwok-kin Ng
       李修贤 Danny Lee
       陈欣健 Philip Chan
       侯志强 Chi-Keung Hau
       罗礼贤 Bruce Law
◎简  介
  李修贤是港产差人片的代表性人物,表演各式差人均栩栩如生,本片是他身兼编、导、演三职的作品,而且挑选了有交通部飞虎队之称的“反飞车组"作描写中心,诡计将差人片的生活故事连系飞车追逐的刺激排场,倍增影片的文娱性,但成就只属一般。剧情描写反飞车组的高级督察李坚在巡罗时熟悉了天真活跃的幼儿园门生波比,可是他在一宗交通意外中受了重伤,令李坚更憎恨那些飞车闯祸的骑士。富家子比利自国外回港后无所作为,以飞车为乐,视交通法规如无物,甚至跟飞车掌撞死了一位在路障履行职务的交通差人。比利的父亲用财势让儿子消遥法外,李坚却跟手下采用很是手段令比利自食恶果。
  1. ##### MediaInfo ######
  2. General
  3. Unique ID                                : 225884223120977001181446323354176094911 (0xA9EFB80B9F2A885706D5219AFDF482BF)
  4. Complete name                            : Road.Warriors.1987.BluRay.1080p.2Audio.TrueHD.5.1.x265.10bit-ALT.mkv
  5. Format                                   : Matroska
  6. Format version                           : Version 4
  7. File size                                : 10.3 GiB
  8. Duration                                 : 1 h 37 min
  9. Overall bit rate mode                    : Variable
  10. Overall bit rate                         : 15.1 Mb/s
  11. Encoded date                             : UTC 2022-04-26 06:42:37
  12. Writing application                      : mkvmerge v49.0.0 ('Sick Of Losing Soulmates') 64-bit
  13. Writing library                          : libebml v1.4.0 + libmatroska v1.6.1
  14. Video
  15. ID                                       : 1
  16. Format                                   : HEVC
  17. Format/Info                              : High Efficiency Video Coding
  18. Format profile                           : Main [email protected]@High
  19. Codec ID                                 : V_MPEGH/ISO/HEVC
  20. Duration                                 : 1 h 37 min
  21. Bit rate                                 : 7 915 kb/s
  22. Width                                    : 1 920 pixels
  23. Height                                   : 1 034 pixels
  24. Display aspect ratio                     : 1.85:1
  25. Frame rate mode                          : Constant
  26. Frame rate                               : 24.000 FPS
  27. Color space                              : YUV
  28. Chroma subsampling                       : 4:2:0
  29. Bit depth                                : 10 bits
  30. Bits/(Pixel*Frame)                       : 0.166
  31. Stream size                              : 5.40 GiB (52%)
  32. Title                                    : HEVC, [email protected]@High, 24 fps @ 7914 kbps
  33. Writing library                          : x265 3.5+36-1f2c8da77:[Windows][GCC 11.2.0][64 bit] 10bit
  34. Encoding settings                        : cpuid=538751111039 / frame-threads=4 / numa-pools=16 / wpp / pmode / pme / no-psnr / no-ssim / log-level=2 / input-csp=1 / input-res=1920x1034 / interlace=0 / total-frames=140727 / level-idc=51 / high-tier=1 / uhd-bd=0 / ref=5 / no-allow-non-conformance / no-repeat-headers / annexb / no-aud / no-eob / no-eos / no-hrd / info / hash=0 / no-temporal-layers / open-gop / min-keyint=24 / keyint=240 / gop-lookahead=0 / bframes=6 / b-adapt=2 / b-pyramid / bframe-bias=0 / rc-lookahead=40 / lookahead-slices=0 / NTM4NzU=uuDQuD2mJt9fsCf / scenecut=40 / no-hist-scenecut / radl=0 / no-splice / no-intra-refresh / ctu=32 / min-cu-size=8 / no-rect / no-amp / max-tu-size=32 / tu-inter-depth=3 / tu-intra-depth=3 / limit-tu=4 / rdoq-level=2 / dynamic-rd=0.00 / no-ssim-rd / signhide / no-tskip / nr-intra=0 / nr-inter=0 / no-constrained-intra / no-strong-intra-smoothing / max-merge=4 / limit-refs=1 / limit-modes / me=3 / subme=4 / merange=25 / temporal-mvp / no-frame-dup / no-hme / weightp / weightb / no-analyze-src-pics / deblock=-3:-3 / no-sao / no-sao-non-deblock / rd=6 / selective-sao=0 / no-early-skip / rskip / no-fast-intra / no-tskip-fast / no-cu-lossless / b-intra / no-splitrd-skip / rdpenalty=0 / psy-rd=2.00 / psy-rdoq=1.00 / no-rd-refine / no-lossless / cbqpoffs=0 / crqpoffs=0 / rc=crf / crf=17.0 / qcomp=0.65 / qpstep=4 / stats-write=0 / stats-read=0 / vbv-maxrate=80000 / vbv-bufsize=80000 / vbv-init=0.9 / min-vbv-fullness=50.0 / max-vbv-fullness=80.0 / crf-max=0.0 / crf-min=0.0 / ipratio=1.40 / pbratio=1.30 / aq-mode=2 / aq-strength=0.85 / cutree / zone-count=0 / no-strict-cbr / qg-size=32 / no-rc-grain / qpmax=69 / qpmin=0 / no-const-vbv / sar=1 / overscan=0 / videoformat=5 / range=0 / colorprim=1 / transfer=1 / colormatrix=1 / chromaloc=0 / display-window=0 / cll=0,0 / min-luma=0 / max-luma=1023 / log2-max-poc-lsb=8 / vui-timing-info / vui-hrd-info / slices=1 / no-opt-qp-pps / no-opt-ref-list-length-pps / no-multi-pass-opt-rps / scenecut-bias=0.05 / hist-threshold=0.03 / no-opt-cu-delta-qp / no-aq-motion / no-hdr10 / no-hdr10-opt / no-dhdr10-opt / no-idr-recovery-sei / analysis-reuse-level=0 / analysis-save-reuse-level=0 / analysis-load-reuse-level=0 / scale-factor=0 / refine-intra=0 / refine-inter=0 / refine-mv=1 / refine-ctu-distortion=0 / no-limit-sao / ctu-info=0 / no-lowpass-dct / refine-analysis-type=0 / copy-pic=1 / max-ausize-factor=1.0 / no-dynamic-refine / no-single-sei / no-hevc-aq / no-svt / no-field / qp-adaptation-range=1.00 / scenecut-aware-qp=0conformance-window-offsets / right=0 / bottom=0 / NTM4NzU= / decoder-max-rate=0 / no-vbv-live-multi-pass
  35. Language                                 : English
  36. Default                                  : Yes
  37. Forced                                   : No
  38. Color range                              : Limited
  39. Color primaries                          : BT.709
  40. Transfer characteristics                 : BT.709
  41. Matrix coefficients                      : BT.709
  42. Audio #1
  43. ID                                       : 2
  44. Format                                   : MLP FBA
  45. Format/Info                              : Meridian Lossless Packing FBA
  46. Commercial name                          : Dolby TrueHD
  47. Codec ID                                 : A_TRUEHD
  48. Duration                                 : 1 h 37 min
  49. Bit rate mode                            : Variable
  50. Bit rate                                 : 2 812 kb/s
  51. Maximum bit rate                         : 4 206 kb/s
  52. Channel(s)                               : 6 channels
  53. Channel layout                           : L R C LFE Ls Rs
  54. Sampling rate                            : 96.0 kHz
  55. Frame rate                               : 1 200.000 FPS (80 SPF)
  56. Compression mode                         : Lossless
  57. Stream size                              : 1.92 GiB (19%)
  58. Title                                    : Cantonese Dolby TrueHD Audio 5.1 @ 3452 kbps
  59. Language                                 : Chinese
  60. Default                                  : Yes
  61. Forced                                   : No
  62. Audio #2
  63. ID                                       : 3
  64. Format                                   : AC-3
  65. Format/Info                              : Audio Coding 3
  66. Commercial name                          : Dolby Digital
  67. Codec ID                                 : A_AC3
  68. Duration                                 : 1 h 37 min
  69. Bit rate mode                            : Constant
  70. Bit rate                                 : 640 kb/s
  71. Channel(s)                               : 6 channels
  72. Channel layout                           : L R C LFE Ls Rs
  73. Sampling rate                            : 48.0 kHz
  74. Frame rate                               : 31.250 FPS (1536 SPF)
  75. Compression mode                         : Lossy
  76. Stream size                              : 447 MiB (4%)
  77. Title                                    : Cantonese Dolby Digital Audio 5.1 @ 640 kbps
  78. Language                                 : Chinese
  79. Service kind                             : Complete Main
  80. Default                                  : No
  81. Forced                                   : No
  82. Audio #3
  83. ID                                       : 4
  84. Format                                   : MLP FBA
  85. Format/Info                              : Meridian Lossless Packing FBA
  86. Commercial name                          : Dolby TrueHD
  87. Codec ID                                 : A_TRUEHD
  88. Duration                                 : 1 h 37 min
  89. Bit rate mode                            : Variable
  90. Bit rate                                 : 2 857 kb/s
  91. Maximum bit rate                         : 4 146 kb/s
  92. Channel(s)                               : 6 channels
  93. Channel layout                           : L R C LFE Ls Rs
  94. Sampling rate                            : 96.0 kHz
  95. Frame rate                               : 1 200.000 FPS (80 SPF)
  96. Compression mode                         : Lossless
  97. Stream size                              : 1.95 GiB (19%)
  98. Title                                    : Mandarin Dolby TrueHD Audio 5.1 @ 3497 kbps
  99. Language                                 : Chinese
  100. Default                                  : No
  101. Forced                                   : No
  102. Audio #4
  103. ID                                       : 5
  104. Format                                   : AC-3
  105. Format/Info                              : Audio Coding 3
  106. Commercial name                          : Dolby Digital
  107. Codec ID                                 : A_AC3
  108. Duration                                 : 1 h 37 min
  109. Bit rate mode                            : Constant
  110. Bit rate                                 : 640 kb/s
  111. Channel(s)                               : 6 channels
  112. Channel layout                           : L R C LFE Ls Rs
  113. Sampling rate                            : 48.0 kHz
  114. Frame rate                               : 31.250 FPS (1536 SPF)
  115. Compression mode                         : Lossy
  116. Stream size                              : 447 MiB (4%)
  117. Title                                    : Mandarin Dolby Digital Audio 5.1 @ 640 kbps
  118. Language                                 : Chinese
  119. Service kind                             : Complete Main
  120. Default                                  : No
  121. Forced                                   : No
  122. Text #1
  123. ID                                       : 6
  124. Format                                   : PGS
  125. Codec ID                                 : S_HDMV/PGS
  126. Codec ID/Info                            : Picture based subtitle format used on BDs/HD-DVDs
  127. Duration                                 : 1 h 34 min
  128. Bit rate                                 : 48.3 kb/s
  129. Count of elements                        : 2452
  130. Stream size                              : 32.5 MiB (0%)
  131. Title                                    : Cht/SUP  原盘繁体
  132. Language                                 : Chinese
  133. Default                                  : No
  134. Forced                                   : No
  135. Text #2
  136. ID                                       : 7
  137. Format                                   : PGS
  138. Codec ID                                 : S_HDMV/PGS
  139. Codec ID/Info                            : Picture based subtitle format used on BDs/HD-DVDs
  140. Duration                                 : 1 h 34 min
  141. Bit rate                                 : 47.1 kb/s
  142. Count of elements                        : 2474
  143. Stream size                              : 32.0 MiB (0%)
  144. Title                                    : Chs/SUP  原盘简体
  145. Language                                 : Chinese
  146. Default                                  : Yes
  147. Forced                                   : No
  148. Text #3
  149. ID                                       : 8
  150. Format                                   : PGS
  151. Codec ID                                 : S_HDMV/PGS
  152. Codec ID/Info                            : Picture based subtitle format used on BDs/HD-DVDs
  153. Duration                                 : 1 h 34 min
  154. Bit rate                                 : 57.9 kb/s
  155. Count of elements                        : 2472
  156. Stream size                              : 39.3 MiB (0%)
  157. Title                                    : Eng/SUP
  158. Language                                 : English
  159. Default                                  : No
  160. Forced                                   : No
  161. Menu
  162. 00:00:00.000                             : en:第 01 章
  163. 00:08:05.750                             : en:第 02 章
  164. 00:16:25.167                             : en:第 03 章
  165. 00:25:11.375                             : en:第 04 章
  166. 00:30:52.000                             : en:第 05 章
  167. 00:41:06.833                             : en:第 06 章
  168. 00:48:49.833                             : en:第 07 章
  169. 00:56:54.792                             : en:第 08 章
  170. 01:04:36.667                             : en:第 09 章
  171. 01:13:04.417                             : en:第 10 章
  172. 01:22:31.958                             : en:第 11 章
  173. 01:29:51.875                             : en:第 12 章
复制代码

















保举请利用qBittorrent,utorrent,transmission等标准BT软件下载!以获得最快速度。奉求保种!





回复

使用道具 举报

懒得打字嘛,点击右侧快捷回复 【右侧内容,后台自定义】
您需要登录后才可以回帖 登录 | 立即加入

本版积分规则

Archiver|小黑屋| 蓝光电影网 |网站地图

Copyright © 2021 Comsenz Inc. Powered by 蓝光电影网

蓝光电影网

本站内容由用户自主分享和转载自互联网,转载目的在于传递更多信息,并不代表本网赞同其观点和对其真实性负责。

如有侵权、违反国家法律政策行为,请联系我们,我们会第一时间及时清除和处理!

举报反馈邮箱:[email protected]

快速回复 返回顶部 返回列表