找回密码

蓝光电影网

查看: 71|回复: 0

[剧情] 新生化危机[简繁英双语字幕].Resident.Evil.Welcome.to.Raccoon.City.2021.BluRay.1080p.DTS-HD.MA5.1.x265.10bit-ALT 5.13GB

[复制链接]
蓝光币
7
发表于 2022-7-28 01:50:37 | 显示全部楼层 |阅读模式


◎标  题 新生化危机
◎译  名 恶灵古堡首部曲:拉昆市(台) / 生化危机:接待来到浣熊市 / 恶灵古堡 / Biohazard
◎片  名 Resident Evil: Welcome to Raccoon City
◎年  代 2021
◎产  地 德国 / 美国 / 加拿大
◎类  别 行动 / 科幻 / 可骇
◎语  言 英语
◎上映日期 2021-11-24(加拿大)
◎IMDb链接 https://www.imdb.com/title/tt6920084/
◎豆瓣评分 4.6/10 (14278人评价)
◎豆瓣链接 https://movie.douban.com/subject/26140265/
◎片  长 107分钟
◎导  演 约翰内斯·罗伯茨 Johannes Roberts
◎编  剧 约翰内斯·罗伯茨 Johannes Roberts
◎演  员 汉娜·乔恩-卡门 Hannah John-Kamen
       卡雅·斯考达里奥 Kaya Scodelario
       尼尔·麦克唐纳 Neal McDonough
       汤姆·霍珀 Tom Hopper
       罗比·阿梅尔 Robbie Amell
       阿万·乔贾 Avan Jogia
       唐纳尔·罗格 Donal Logue
       高莉莉 Lily Gao
       内森·达莱斯 Nathan Dales
       斯蒂芬妮·霍金斯 Stephannie Hawkins
       乔什·克鲁达斯 Josh Cruddas
       查德·洛克 Chad Rook
       珍妮特·波特 Janet Porter
       帕梅拉·麦克唐纳 Pamela MacDonald
       霍莉·德·巴罗斯 Holly de Barros
       萨米·阿泽罗 Sammy Azero
       帕特·桑顿 Pat Thornton
       达伦·W·马吕努克 Darren W. Marynuk
       卡森`曼宁 Carson Manning
       温子仁 James Wan
       马克西姆·亚历山大 Maxime Alexandre
       德夫·辛格 Dev Singh
       詹妮弗·兰茨 Jennifer Lantz
◎简  介
  浣熊市曾是兴旺成长的制药巨头——伞公司(Umbrella Corporation)的总部地点地,现在却是一个暮气沉沉的中西部小镇。                                    
                                该公司的大撤离使这座城市酿成了一片荒地,地下蕴藏着庞大的邪恶。                                    
                                当邪恶被开释时,镇上的人们将永久改变,一小群幸存者必须配合尽力,揭开庇护伞背后的真相,并度留宿晚。
  1. ##### MediaInfo ######
  2. General
  3. Unique ID                                : 316044577972937158477751457043914151737 (0xEDC3F8BDEB3546BB8C4E9686EB8BD739)
  4. Complete name                            : Resident.Evil.Welcome.to.Raccoon.City.2021.BluRay.1080p.DTS-HD.MA5.1.x265.10bit-ALT.mkv
  5. Format                                   : Matroska
  6. Format version                           : Version 4
  7. File size                                : 5.13 GiB
  8. Duration                                 : 1 h 47 min
  9. Overall bit rate mode                    : Variable
  10. Overall bit rate                         : 6 834 kb/s
  11. Encoded date                             : UTC 2022-02-07 11:08:34
  12. Writing application                      : mkvmerge v49.0.0 ('Sick Of Losing Soulmates') 64-bit
  13. Writing library                          : libebml v1.4.0 + libmatroska v1.6.1
  14. Video
  15. ID                                       : 1
  16. Format                                   : HEVC
  17. Format/Info                              : High Efficiency Video Coding
  18. Format profile                           : Main [email protected]@High
  19. Codec ID                                 : V_MPEGH/ISO/HEVC
  20. Duration                                 : 1 h 47 min
  21. Bit rate                                 : 4 381 kb/s
  22. Width                                    : 1 920 pixels
  23. Height                                   : 798 pixels
  24. Display aspect ratio                     : 2.40:1
  25. Frame rate mode                          : Constant
  26. Frame rate                               : 23.976 (24000/1001/53875) FPS
  27. Color space                              : YUV
  28. Chroma subsampling                       : 4:2:0
  29. Bit depth                                : 10 bits
  30. Bits/(Pixel*Frame)                       : 0.119
  31. Stream size                              : 3.29 GiB (64%)
  32. Title                                    : HEVC, [email protected]@High, 24/1.001 fps @ 4381 kbps
  33. Writing library                          : x265 3.4+14-gd419c7152:[Windows][GCC 10.2.0][64 bit] 10bit
  34. Encoding settings                        : cpuid=538751111039 / frame-threads=4 / numa-pools=16 / wpp / pmode / pme / no-psnr / no-ssim / log-level=2 / input-csp=1 / input-res=1920x798 / interlace=0 / total-frames=154632 / level-idc=51 / high-tier=1 / uhd-bd=0 / ref=5 / no-allow-non-conformance / no-repeat-headers / annexb / no-aud / no-hrd / info / hash=0 / no-temporal-layers / open-gop / min-keyint=24 / keyint=240 / gop-lookahead=0 / bframes=6 / b-adapt=2 / b-pyramid / bframe-bias=0 / rc-lookahead=40 / lookahead-slices=0 / NTM4NzU=uuDQuD2mJt9fsCf / scenecut=40 / hist-scenecut=0 / radl=0 / no-splice / no-intra-refresh / ctu=32 / min-cu-size=8 / no-rect / no-amp / max-tu-size=32 / tu-inter-depth=3 / tu-intra-depth=3 / limit-tu=4 / rdoq-level=2 / dynamic-rd=0.00 / no-ssim-rd / signhide / no-tskip / nr-intra=0 / nr-inter=0 / no-constrained-intra / no-strong-intra-smoothing / max-merge=4 / limit-refs=1 / limit-modes / me=3 / subme=4 / merange=25 / temporal-mvp / no-frame-dup / no-hme / weightp / weightb / no-analyze-src-pics / deblock=-3:-3 / no-sao / no-sao-non-deblock / rd=6 / selective-sao=0 / no-early-skip / rskip / no-fast-intra / no-tskip-fast / no-cu-lossless / b-intra / no-splitrd-skip / rdpenalty=0 / psy-rd=2.00 / psy-rdoq=1.00 / no-rd-refine / no-lossless / cbqpoffs=0 / crqpoffs=0 / rc=crf / crf=17.0 / qcomp=0.65 / qpstep=4 / stats-write=0 / stats-read=0 / vbv-maxrate=80000 / vbv-bufsize=80000 / vbv-init=0.9 / crf-max=0.0 / crf-min=0.0 / ipratio=1.40 / pbratio=1.30 / aq-mode=2 / aq-strength=0.85 / cutree / zone-count=0 / no-strict-cbr / qg-size=32 / no-rc-grain / qpmax=69 / qpmin=0 / no-const-vbv / sar=1 / overscan=0 / videoformat=5 / range=0 / colorprim=1 / transfer=1 / colormatrix=1 / chromaloc=0 / display-window=0 / cll=0,0 / min-luma=0 / max-luma=1023 / log2-max-poc-lsb=8 / vui-timing-info / vui-hrd-info / slices=1 / no-opt-qp-pps / no-opt-ref-list-length-pps / no-multi-pass-opt-rps / scenecut-bias=0.05 / hist-threshold=0.03 / no-opt-cu-delta-qp / no-aq-motion / no-hdr10 / no-hdr10-opt / no-dhdr10-opt / no-idr-recovery-sei / analysis-reuse-level=0 / analysis-save-reuse-level=0 / analysis-load-reuse-level=0 / scale-factor=0 / refine-intra=0 / refine-inter=0 / refine-mv=1 / refine-ctu-distortion=0 / no-limit-sao / ctu-info=0 / no-lowpass-dct / refine-analysis-type=0 / copy-pic=1 / max-ausize-factor=1.0 / no-dynamic-refine / no-single-sei / no-hevc-aq / no-svt / no-field / qp-adaptation-range=1.00 / no-scenecut-aware-qpconformance-window-offsets / right=0 / bottom=0 / NTM4NzU= / decoder-max-rate=0
  35. Language                                 : English
  36. Default                                  : Yes
  37. Forced                                   : No
  38. Color range                              : Limited
  39. Color primaries                          : BT.709
  40. Transfer characteristics                 : BT.709
  41. Matrix coefficients                      : BT.709
  42. Audio
  43. ID                                       : 2
  44. Format                                   : DTS XLL
  45. Format/Info                              : Digital Theater Systems
  46. Commercial name                          : DTS-HD Master Audio
  47. Codec ID                                 : A_DTS
  48. Duration                                 : 1 h 47 min
  49. Bit rate mode                            : Variable
  50. Bit rate                                 : 2 283 kb/s
  51. Channel(s)                               : 6 channels
  52. Channel layout                           : C L R Ls Rs LFE
  53. Sampling rate                            : 48.0 kHz
  54. Frame rate                               : 93.750 FPS (512 SPF)
  55. Bit depth                                : 16 bits
  56. Compression mode                         : Lossless
  57. Stream size                              : 1.71 GiB (33%)
  58. Title                                    : English DTS-HD Master Audio 5.1 @ 2283 kbps
  59. Language                                 : English
  60. Default                                  : Yes
  61. Forced                                   : No
  62. Text #1
  63. ID                                       : 3
  64. Format                                   : PGS
  65. Codec ID                                 : S_HDMV/PGS
  66. Codec ID/Info                            : Picture based subtitle format used on BDs/HD-DVDs
  67. Duration                                 : 1 h 40 min
  68. Bit rate                                 : 23.5 kb/s
  69. Count of elements                        : 1959
  70. Stream size                              : 16.9 MiB (0%)
  71. Title                                    : Eng/SUP  SDH
  72. Language                                 : English
  73. Default                                  : No
  74. Forced                                   : No
  75. Text #2
  76. ID                                       : 4
  77. Format                                   : PGS
  78. Codec ID                                 : S_HDMV/PGS
  79. Codec ID/Info                            : Picture based subtitle format used on BDs/HD-DVDs
  80. Duration                                 : 1 h 39 min
  81. Bit rate                                 : 19.5 kb/s
  82. Count of elements                        : 1600
  83. Stream size                              : 13.9 MiB (0%)
  84. Title                                    : Eng/SUP
  85. Language                                 : English
  86. Default                                  : No
  87. Forced                                   : No
  88. Text #3
  89. ID                                       : 5
  90. Format                                   : PGS
  91. Codec ID                                 : S_HDMV/PGS
  92. Codec ID/Info                            : Picture based subtitle format used on BDs/HD-DVDs
  93. Duration                                 : 1 h 39 min
  94. Bit rate                                 : 17.3 kb/s
  95. Count of elements                        : 1336
  96. Stream size                              : 12.4 MiB (0%)
  97. Title                                    : Chs/SUP  官译简体
  98. Language                                 : Chinese
  99. Default                                  : No
  100. Forced                                   : No
  101. Text #4
  102. ID                                       : 6
  103. Format                                   : PGS
  104. Codec ID                                 : S_HDMV/PGS
  105. Codec ID/Info                            : Picture based subtitle format used on BDs/HD-DVDs
  106. Duration                                 : 1 h 39 min
  107. Bit rate                                 : 17.7 kb/s
  108. Count of elements                        : 1570
  109. Stream size                              : 12.6 MiB (0%)
  110. Title                                    : Cht/SUP  官译繁体
  111. Language                                 : Chinese
  112. Default                                  : No
  113. Forced                                   : No
  114. Text #5
  115. ID                                       : 7
  116. Format                                   : PGS
  117. Codec ID                                 : S_HDMV/PGS
  118. Codec ID/Info                            : Picture based subtitle format used on BDs/HD-DVDs
  119. Duration                                 : 1 h 38 min
  120. Bit rate                                 : 19.0 kb/s
  121. Count of elements                        : 1237
  122. Stream size                              : 13.3 MiB (0%)
  123. Title                                    : Chs/SUP  简体
  124. Language                                 : Chinese
  125. Default                                  : Yes
  126. Forced                                   : No
  127. Text #6
  128. ID                                       : 8
  129. Format                                   : PGS
  130. Codec ID                                 : S_HDMV/PGS
  131. Codec ID/Info                            : Picture based subtitle format used on BDs/HD-DVDs
  132. Duration                                 : 1 h 38 min
  133. Bit rate                                 : 19.5 kb/s
  134. Count of elements                        : 1237
  135. Stream size                              : 13.7 MiB (0%)
  136. Title                                    : Cht/SUP  繁体
  137. Language                                 : Chinese
  138. Default                                  : No
  139. Forced                                   : No
  140. Text #7
  141. ID                                       : 9
  142. Format                                   : PGS
  143. Codec ID                                 : S_HDMV/PGS
  144. Codec ID/Info                            : Picture based subtitle format used on BDs/HD-DVDs
  145. Duration                                 : 1 h 38 min
  146. Bit rate                                 : 31.5 kb/s
  147. Count of elements                        : 1237
  148. Stream size                              : 22.2 MiB (0%)
  149. Title                                    : Chs/SUP  简英双语
  150. Language                                 : Chinese
  151. Default                                  : No
  152. Forced                                   : No
  153. Text #8
  154. ID                                       : 10
  155. Format                                   : PGS
  156. Codec ID                                 : S_HDMV/PGS
  157. Codec ID/Info                            : Picture based subtitle format used on BDs/HD-DVDs
  158. Duration                                 : 1 h 38 min
  159. Bit rate                                 : 32.0 kb/s
  160. Count of elements                        : 1237
  161. Stream size                              : 22.5 MiB (0%)
  162. Title                                    : Cht/SUP  繁英双语
  163. Language                                 : Chinese
  164. Default                                  : No
  165. Forced                                   : No
  166. Menu
  167. 00:00:00.000                             : en:第 01 章
  168. 00:10:02.644                             : en:第 02 章
  169. 00:18:14.176                             : en:第 03 章
  170. 00:26:05.773                             : en:第 04 章
  171. 00:33:51.071                             : en:第 05 章
  172. 00:38:29.599                             : en:第 06 章
  173. 00:45:53.834                             : en:第 07 章
  174. 00:51:21.245                             : en:第 08 章
  175. 00:54:49.286                             : en:第 09 章
  176. 01:00:29.751                             : en:第 10 章
  177. 01:05:52.991                             : en:第 11 章
  178. 01:10:04.075                             : en:第 12 章
  179. 01:13:17.810                             : en:第 13 章
  180. 01:14:56.325                             : en:第 14 章
  181. 01:18:43.344                             : en:第 15 章
  182. 01:32:31.671                             : en:第 16 章
  183. 01:40:54.048                             : en:第 17 章
复制代码

















保举请利用qBittorrent,utorrent,transmission等标准BT软件下载!以获得最快速度。奉求保种!





回复

使用道具 举报

懒得打字嘛,点击右侧快捷回复 【右侧内容,后台自定义】
您需要登录后才可以回帖 登录 | 立即加入

本版积分规则

Archiver|小黑屋| 蓝光电影网 |网站地图

Copyright © 2021 Comsenz Inc. Powered by 蓝光电影网

蓝光电影网

本站内容由用户自主分享和转载自互联网,转载目的在于传递更多信息,并不代表本网赞同其观点和对其真实性负责。

如有侵权、违反国家法律政策行为,请联系我们,我们会第一时间及时清除和处理!

举报反馈邮箱:[email protected]

快速回复 返回顶部 返回列表