找回密码

蓝光电影网

查看: 63|回复: 1

[剧情] 巴黎Q娘[简繁字幕].Q.Sexual.Desire.2011.BluRay.1080p.DTS-HD.MA5.1.x264-ALT 12.70GB

[复制链接]
蓝光币
7
发表于 2022-7-28 01:50:42 | 显示全部楼层 |阅读模式


◎标  题 巴黎Q娘
◎译  名 Desire
◎片  名 Q
◎年  代 2011
◎产  地 法国
◎类  别 剧情 / 情色
◎语  言 法语
◎上映日期 2011年9月14日
◎IMDb评分 5.5/10 (6327人评价)
◎IMDb链接 https://www.imdb.com/title/tt1879030/
◎豆瓣评分 6.1/10 (3073人评价)
◎豆瓣链接 https://movie.douban.com/subject/6721959/
◎片  长 103 分钟
◎导  演 劳伦特·博尼克
◎编  剧 劳伦特·博尼克
◎演  员 黛博拉·海薇
       海伦娜·席默
       葛雯·迪蒂
       Johnny Amaro
       约翰·利贝罗
       让-佛朗索瓦·戈马特
       Brice Fournier
       Christelle Benoit
       Patrick Hauthier
       Léticia Belliccini
       Fabien Ara
       Margot Heurtematte
       Aurélia Arto
       Noémie Leroux-Cazaubon
       Yassine Azzouz
◎简  介
  塞西尔(Déborah Révy 饰)刚刚失怙,而她排解悲痛的方式居然是成为性瘾者,她向男友讨取无度,还当着他面勾结他朋友;她熟悉了修车店男孩麦特(Gowan Didi 饰),不住撩拨他,又反面他来真的;她在渡轮上蛊惑了一个英国教授,带他到海边用男女错位的方式做爱……似乎她需要用汉子对她愿望来证实自己的存在。麦特原本有个女朋和睦丽丝(Helene Zimmer 饰),她身世守旧,缺少平安感,和麦特的关系朝不保夕。偶合之下,爱丽丝结识了塞西尔,被她引领入性的另一个范畴;麦特不竭被塞西尔引诱,终极发现自己仍爱着爱丽丝;塞西尔的行为越来越出格,起头筹划群体性爱派对,但闯进来找她的男友还是抱着拯救她的动机……
  1. ##### MediaInfo ######
  2. General
  3. Unique ID                                : 236227485042755876835257891660859505153 (0xB1B7C23B05C7FD39A97348634DBCFA01)
  4. Complete name                            : Q.Sexual.Desire.2011.BluRay.1080p.DTS-HD.MA5.1.x264-ALT.mkv
  5. Format                                   : Matroska
  6. Format version                           : Version 4
  7. File size                                : 12.7 GiB
  8. Duration                                 : 1 h 43 min
  9. Overall bit rate mode                    : Variable
  10. Overall bit rate                         : 17.6 Mb/s
  11. Encoded date                             : UTC 2019-05-28 07:08:00
  12. Writing application                      : mkvmerge v8.3.0 ('Over the Horizon') 64bit
  13. Writing library                          : libebml v1.3.1 + libmatroska v1.4.2
  14. Video
  15. ID                                       : 1
  16. Format                                   : AVC
  17. Format/Info                              : Advanced Video Codec
  18. Format profile                           : [email protected]
  19. Format settings                          : CABAC / 4 Ref Frames
  20. Format settings, CABAC                   : Yes
  21. Format settings, Reference frames        : 4 frames
  22. Codec ID                                 : V_MPEG4/ISO/AVC
  23. Duration                                 : 1 h 43 min
  24. Bit rate                                 : 13.8 Mb/s
  25. Width                                    : 1 920 pixels
  26. Height                                   : 1 080 pixels
  27. Display aspect ratio                     : 16:9
  28. Frame rate mode                          : Constant
  29. Frame rate                               : 25.000 FPS
  30. Color space                              : YUV
  31. Chroma subsampling                       : 4:2:0
  32. Bit depth                                : 8 bits
  33. Scan type                                : Progressive
  34. Bits/(Pixel*Frame)                       : 0.266
  35. Stream size                              : 9.95 GiB (78%)
  36. Title                                    : MPEG-4 [email protected] Profile L4.1, 25/1 fps @ 13800 kbps
  37. Writing library                          : x264 core 157 r2969 d4099dd
  38. Encoding settings                        : cabac=1 / ref=4 / deblock=1:-3:-3 / analyse=0x3:0x133 / me=umh / subme=11 / psy=1 / psy_rd=1.00:0.00 / mixed_ref=1 / me_range=32 / chroma_me=1 / trellis=2 / 8x8dct=1 / cqm=0 / deadzone=21,11 / fast_pskip=0 / chroma_qp_offset=-2 / threads=34 / lookahead_threads=3 / sliced_threads=0 / nr=0 / decimate=0 / interlaced=0 / NTM4NzU= / bluray_compat=0 / constrained_intra=0 / bframes=6 / b_pyramid=2 / b_adapt=2 / b_bias=0 / direct=3 / weightb=1 / open_gop=0 / weightp=2 / keyint=250 / keyint_min=25 / NTM4NzU=uuDQuD2mJt9fsCf / scenecut=40 / intra_refresh=0 / rc_lookahead=60 / rc=2pass / mbtree=1 / bitrate=13800 / ratetol=1.0 / qcomp=0.60 / qpmin=0 / qpmax=69 / qpstep=4 / cplxblur=20.0 / qblur=0.5 / vbv_maxrate=45000 / vbv_bufsize=45000 / nal_hrd=none / filler=0 / NTM4NzU=LmsMAP37EqsCpk / ip_ratio=1.40 / aq=1:0.60
  39. Language                                 : English
  40. Default                                  : Yes
  41. Forced                                   : No
  42. Audio
  43. ID                                       : 2
  44. Format                                   : DTS XLL
  45. Format/Info                              : Digital Theater Systems
  46. Commercial name                          : DTS-HD Master Audio
  47. Codec ID                                 : A_DTS
  48. Duration                                 : 1 h 43 min
  49. Bit rate mode                            : Variable
  50. Bit rate                                 : 3 765 kb/s
  51. Channel(s)                               : 6 channels
  52. Channel layout                           : C L R Ls Rs LFE
  53. Sampling rate                            : 48.0 kHz
  54. Frame rate                               : 93.750 FPS (512 SPF)
  55. Bit depth                                : 24 bits
  56. Compression mode                         : Lossless
  57. Stream size                              : 2.72 GiB (21%)
  58. Title                                    : French DTS-HD Master Audio 5.1 @ 3761 kbps
  59. Language                                 : French
  60. Default                                  : Yes
  61. Forced                                   : No
  62. Text #1
  63. ID                                       : 3
  64. Format                                   : PGS
  65. Codec ID                                 : S_HDMV/PGS
  66. Codec ID/Info                            : Picture based subtitle format used on BDs/HD-DVDs
  67. Duration                                 : 1 h 38 min
  68. Bit rate                                 : 19.3 kb/s
  69. Count of elements                        : 2298
  70. Stream size                              : 13.7 MiB (0%)
  71. Title                                    : Chs/SUP  简体
  72. Language                                 : Chinese
  73. Default                                  : Yes
  74. Forced                                   : No
  75. Text #2
  76. ID                                       : 4
  77. Format                                   : PGS
  78. Codec ID                                 : S_HDMV/PGS
  79. Codec ID/Info                            : Picture based subtitle format used on BDs/HD-DVDs
  80. Duration                                 : 1 h 38 min
  81. Bit rate                                 : 20.0 kb/s
  82. Count of elements                        : 2298
  83. Stream size                              : 14.1 MiB (0%)
  84. Title                                    : Cht/SUP  繁体
  85. Language                                 : Chinese
  86. Default                                  : No
  87. Forced                                   : No
  88. Menu
  89. 00:00:00.000                             : en:00:00:00.000
  90. 00:07:19.960                             : en:00:07:19.960
  91. 00:16:16.240                             : en:00:16:16.240
  92. 00:25:01.600                             : en:00:25:01.600
  93. 00:31:04.840                             : en:00:31:04.840
  94. 00:41:21.080                             : en:00:41:21.080
  95. 00:49:36.640                             : en:00:49:36.640
  96. 00:57:38.960                             : en:00:57:38.960
  97. 01:04:52.600                             : en:01:04:52.600
  98. 01:17:54.960                             : en:01:17:54.960
  99. 01:23:10.320                             : en:01:23:10.320
  100. 01:31:31.760                             : en:01:31:31.760
复制代码

















保举请利用qBittorrent,utorrent,transmission等标准BT软件下载!以获得最快速度。奉求保种!





回复

使用道具 举报

蓝光币
4
发表于 2022-7-29 16:59:22 | 显示全部楼层
感谢楼主,再发精品
回复 支持 反对

使用道具 举报

懒得打字嘛,点击右侧快捷回复 【右侧内容,后台自定义】
您需要登录后才可以回帖 登录 | 立即加入

本版积分规则

Archiver|小黑屋| 蓝光电影网 |网站地图

Copyright © 2021 Comsenz Inc. Powered by 蓝光电影网

蓝光电影网

本站内容由用户自主分享和转载自互联网,转载目的在于传递更多信息,并不代表本网赞同其观点和对其真实性负责。

如有侵权、违反国家法律政策行为,请联系我们,我们会第一时间及时清除和处理!

举报反馈邮箱:[email protected]

快速回复 返回顶部 返回列表