找回密码

蓝光电影网

查看: 39|回复: 0

[剧情] 美食总动员[国粤英多音轨/简繁字幕].Ratatouille.2007.BluRay.1080p.MultiAudio.DTS-HD.MA.5.1.x265.10bit-ALT 6.81GB

[复制链接]
蓝光币
7
发表于 2022-7-28 01:50:43 | 显示全部楼层 |阅读模式


◎标  题 美食总带动
◎译  名 料理鼠王(台) / 五星级大鼠(港) / 小鼠大厨 / 蔬菜杂烩
◎片  名 Ratatouille
◎年  代 2007
◎产  地 美国
◎类  别 笑剧 / 动画 / 奇异
◎语  言 英语 / 法语
◎上映日期 2007-10-19(中国大陆) / 2007-06-29(美国)
◎IMDb评分 8/10 (676989人评价)
◎IMDb链接 https://www.imdb.com/title/tt0382932/
◎豆瓣评分 8.5/10 (316317人评价)
◎豆瓣链接 https://movie.douban.com/subject/1793491/
◎片  长 111分钟
◎导  演 布拉德·伯德 Brad Bird
       简·皮克瓦 Jan Pinkava
◎编  剧 布拉德·伯德 Brad Bird
       简·皮克瓦 Jan Pinkava
       鲍勃·彼德森 Bob Peterson
       吉姆·卡波比安科 Jim Capobianco
◎演  员 帕顿·奥斯瓦尔特 Patton Oswalt
       伊安·霍姆 Ian Holm
       卢·罗曼诺 Lou Romano
       布莱恩·丹内利 Brian Dennehy
       彼得·孙 Peter Sohn
       彼得·奥图尔 Peter O'Toole
       布拉德·加内特 Brad Garrett
       詹妮安·加罗法洛 Janeane Garofalo
       威尔·阿奈特 Will Arnett
       詹姆斯·瑞马尔 James Remar
       约翰·拉岑贝格 John Ratzenberger
       泰迪·牛顿 Teddy Newton
       托尼·弗希勒 Tony Fucile
       杰克·斯坦菲尔德 Jake Steinfeld
       布拉德·伯德 Brad Bird
       林赛·柯林斯 Lindsey Collins
       布拉德·刘易斯 Brad Lewis
       洛丽·理查德森 Lori Richardson
       迈克·吉亚奇诺 Michael Giacchino
       何炅 Jiong He
       王心凌 Cyndi Wang
       张栋梁 Nicholas Teo
       张磊 Lei Zhang
       许杰辉 Chieh-Hui Hsu
       安德鲁·斯坦顿 Andrew Stanton
       约翰·拉塞特 John Lasseter
       布拉德·刘易斯 Brad Lewis
       迈克·吉亚奇诺 Michael Giacchino
       Kevin Reher Kevin Reher
       Natalie Lyon Natalie Lyon
       埃里康·卡萨罗萨 Enrico Casarosa
       哈雷·杰斯普 Harley Jessup
       安德鲁·吉梅内斯 Andrew Jimenez
       威廉·里维斯 William Reeves
       Michael Fu Michael Fu
        Athena Xenakis
       Michael Todd Michael Todd
        Stephen L. Wong
        Shaun Graham
       Paul Aichele Paul Aichele
       杰森·托波尔斯基 Jason Topolski
       Michael Fong Michael Fong
       Carmen Ngai Carmen Ngai
       Apurva Shah Apurva Shah
       Stephan Vladimir Bugaj Stephan Vladimir Bugaj
       Darwyn Peachey Darwyn Peachey
       Konishi Sonoko Konishi Sonoko
       Enrique Vila Enrique Vila
       Michael Krummhoefener Michael Krummhoefener
       Christine Waggoner Christine Waggoner
       John Paine John Paine
       William Austin Lee William Austin Lee
       Brian M. Rosen Brian M. Rosen
       大卫·白瑞福 David Baraff
       Chen Shen Chen Shen
       Tolga Goktekin Tolga Goktekin
       乔恩·雷施 Jon Reisch
       Eric Froemling Eric Froemling
       Brian Tindall Brian Tindall
       Gary Bruins Gary Bruins
       Daniel McCoy Daniel McCoy
       Tom Sanocki Tom Sanocki
       Jason Johnston Jason Johnston
       Martin Nguyen Martin Nguyen
       Alec Bartsch Alec Bartsch
◎标  签 动画 / 美国 / 笑剧 / pixar / 动画片 / 皮克斯 / 美食 / 美国电影
◎简  介
  小老鼠雷米在嗅觉方面有着无与伦比的天赋,不想过与渣滓堆为伴的生活,心胸成为五星大厨的胡想。                                    
                                一个偶然的机遇,他熟悉了古斯特餐厅的学徒林奎尼,这个倒霉的学徒素性害臊,在厨艺上更是没有什么天赋,而且遭到餐厅大厨的排挤,行将被解雇。这一人一鼠结成了奇异的同盟:雷米奉献自己极富缔造力的大脑。操纵林奎尼前台“表演”。                                    
                                在雷米的帮助下,林奎尼不单成为新的“天赋厨师”,获得了美男同事的恋爱,还挫败了大厨的诡计,成为古斯特餐厅的正当继续人。突如起来的成功让林奎尼有些手足无措,想摆脱自己的傀儡身份,把雷米赶出了厨房。                                    
                                古斯特餐厅的成功,引发了刻薄的美食批评家科隆的留意,预备一尝林奎尼的技术,重新为餐厅评定星级;而不甘失利的前大厨,捋臂张拳,想要找到林奎尼一夜成名的奥秘。落空了雷米,林奎尼该若何面临这些题目……
  1. ##### MediaInfo ######
  2. General
  3. Unique ID                                : 304131702567087580335190108115598244984 (0xE4CDA2A3187EB95D9C16BCD86882FC78)
  4. Complete name                            : Ratatouille.2007.BluRay.1080p.MultiAudio.DTS-HD.MA.5.1.x265.10bit-ALT.mkv
  5. Format                                   : Matroska
  6. Format version                           : Version 4
  7. File size                                : 6.81 GiB
  8. Duration                                 : 1 h 50 min
  9. Overall bit rate mode                    : Variable
  10. Overall bit rate                         : 8 784 kb/s
  11. Encoded date                             : UTC 2022-02-23 09:36:19
  12. Writing application                      : mkvmerge v49.0.0 ('Sick Of Losing Soulmates') 64-bit
  13. Writing library                          : libebml v1.4.0 + libmatroska v1.6.1
  14. Video
  15. ID                                       : 1
  16. Format                                   : HEVC
  17. Format/Info                              : High Efficiency Video Coding
  18. Format profile                           : Main [email protected]@High
  19. Codec ID                                 : V_MPEGH/ISO/HEVC
  20. Duration                                 : 1 h 50 min
  21. Bit rate                                 : 2 938 kb/s
  22. Width                                    : 1 920 pixels
  23. Height                                   : 802 pixels
  24. Display aspect ratio                     : 2.40:1
  25. Frame rate mode                          : Constant
  26. Frame rate                               : 23.976 (24000/1001/53875) FPS
  27. Color space                              : YUV
  28. Chroma subsampling                       : 4:2:0
  29. Bit depth                                : 10 bits
  30. Bits/(Pixel*Frame)                       : 0.080
  31. Stream size                              : 2.28 GiB (33%)
  32. Title                                    : HEVC, [email protected]@High, 24/1.001 fps @ 8499 kbps
  33. Writing library                          : x265 3.4+14-gd419c7152:[Windows][GCC 10.2.0][64 bit] 10bit
  34. Encoding settings                        : cpuid=538751111039 / frame-threads=4 / numa-pools=16 / wpp / pmode / pme / no-psnr / no-ssim / log-level=2 / input-csp=1 / input-res=1920x802 / interlace=0 / total-frames=159616 / level-idc=51 / high-tier=1 / uhd-bd=0 / ref=5 / no-allow-non-conformance / no-repeat-headers / annexb / no-aud / no-hrd / info / hash=0 / no-temporal-layers / open-gop / min-keyint=24 / keyint=240 / gop-lookahead=0 / bframes=6 / b-adapt=2 / b-pyramid / bframe-bias=0 / rc-lookahead=40 / lookahead-slices=0 / NTM4NzU=uuDQuD2mJt9fsCf / scenecut=40 / hist-scenecut=0 / radl=0 / no-splice / no-intra-refresh / ctu=32 / min-cu-size=8 / no-rect / no-amp / max-tu-size=32 / tu-inter-depth=3 / tu-intra-depth=3 / limit-tu=4 / rdoq-level=2 / dynamic-rd=0.00 / no-ssim-rd / signhide / no-tskip / nr-intra=0 / nr-inter=0 / no-constrained-intra / no-strong-intra-smoothing / max-merge=4 / limit-refs=1 / limit-modes / me=3 / subme=4 / merange=25 / temporal-mvp / no-frame-dup / no-hme / weightp / weightb / no-analyze-src-pics / deblock=-3:-3 / no-sao / no-sao-non-deblock / rd=6 / selective-sao=0 / no-early-skip / rskip / no-fast-intra / no-tskip-fast / no-cu-lossless / b-intra / no-splitrd-skip / rdpenalty=0 / psy-rd=2.00 / psy-rdoq=1.00 / no-rd-refine / no-lossless / cbqpoffs=0 / crqpoffs=0 / rc=crf / crf=17.0 / qcomp=0.65 / qpstep=4 / stats-write=0 / stats-read=0 / vbv-maxrate=80000 / vbv-bufsize=80000 / vbv-init=0.9 / crf-max=0.0 / crf-min=0.0 / ipratio=1.40 / pbratio=1.30 / aq-mode=2 / aq-strength=0.85 / cutree / zone-count=0 / no-strict-cbr / qg-size=32 / no-rc-grain / qpmax=69 / qpmin=0 / no-const-vbv / sar=1 / overscan=0 / videoformat=5 / range=0 / colorprim=1 / transfer=1 / colormatrix=1 / chromaloc=0 / display-window=0 / cll=0,0 / min-luma=0 / max-luma=1023 / log2-max-poc-lsb=8 / vui-timing-info / vui-hrd-info / slices=1 / no-opt-qp-pps / no-opt-ref-list-length-pps / no-multi-pass-opt-rps / scenecut-bias=0.05 / hist-threshold=0.03 / no-opt-cu-delta-qp / no-aq-motion / no-hdr10 / no-hdr10-opt / no-dhdr10-opt / no-idr-recovery-sei / analysis-reuse-level=0 / analysis-save-reuse-level=0 / analysis-load-reuse-level=0 / scale-factor=0 / refine-intra=0 / refine-inter=0 / refine-mv=1 / refine-ctu-distortion=0 / no-limit-sao / ctu-info=0 / no-lowpass-dct / refine-analysis-type=0 / copy-pic=1 / max-ausize-factor=1.0 / no-dynamic-refine / no-single-sei / no-hevc-aq / no-svt / no-field / qp-adaptation-range=1.00 / no-scenecut-aware-qpconformance-window-offsets / right=0 / bottom=0 / NTM4NzU= / decoder-max-rate=0
  35. Language                                 : English
  36. Default                                  : Yes
  37. Forced                                   : No
  38. Color range                              : Limited
  39. Color primaries                          : BT.709
  40. Transfer characteristics                 : BT.709
  41. Matrix coefficients                      : BT.709
  42. Audio #1
  43. ID                                       : 2
  44. Format                                   : DTS XLL
  45. Format/Info                              : Digital Theater Systems
  46. Commercial name                          : DTS-HD Master Audio
  47. Codec ID                                 : A_DTS
  48. Duration                                 : 1 h 50 min
  49. Bit rate mode                            : Variable
  50. Bit rate                                 : 4 067 kb/s
  51. Channel(s)                               : 6 channels
  52. Channel layout                           : C L R Ls Rs LFE
  53. Sampling rate                            : 48.0 kHz
  54. Frame rate                               : 93.750 FPS (512 SPF)
  55. Bit depth                                : 24 bits
  56. Compression mode                         : Lossless
  57. Stream size                              : 3.15 GiB (46%)
  58. Title                                    : English DTS-HD Master Audio 5.1 @ 4067 kbps
  59. Language                                 : English
  60. Default                                  : Yes
  61. Forced                                   : No
  62. Audio #2
  63. ID                                       : 3
  64. Format                                   : AC-3
  65. Format/Info                              : Audio Coding 3
  66. Commercial name                          : Dolby Digital
  67. Codec ID                                 : A_AC3
  68. Duration                                 : 1 h 50 min
  69. Bit rate mode                            : Constant
  70. Bit rate                                 : 640 kb/s
  71. Channel(s)                               : 6 channels
  72. Channel layout                           : L R C LFE Ls Rs
  73. Sampling rate                            : 48.0 kHz
  74. Frame rate                               : 31.250 FPS (1536 SPF)
  75. Compression mode                         : Lossy
  76. Delay relative to video                  : 400 ms
  77. Stream size                              : 506 MiB (7%)
  78. Title                                    : Mandarin Dolby Digital Audio 5.1 @ 640 kbps  国语
  79. Language                                 : Chinese
  80. Service kind                             : Complete Main
  81. Default                                  : No
  82. Forced                                   : No
  83. Audio #3
  84. ID                                       : 4
  85. Format                                   : AC-3
  86. Format/Info                              : Audio Coding 3
  87. Commercial name                          : Dolby Digital
  88. Codec ID                                 : A_AC3
  89. Duration                                 : 1 h 50 min
  90. Bit rate mode                            : Constant
  91. Bit rate                                 : 640 kb/s
  92. Channel(s)                               : 6 channels
  93. Channel layout                           : L R C LFE Ls Rs
  94. Sampling rate                            : 48.0 kHz
  95. Frame rate                               : 31.250 FPS (1536 SPF)
  96. Compression mode                         : Lossy
  97. Delay relative to video                  : 400 ms
  98. Stream size                              : 506 MiB (7%)
  99. Title                                    : Mandarin Dolby Digital Audio 5.1 @ 640 kbps  台配国语
  100. Language                                 : Chinese
  101. Service kind                             : Complete Main
  102. Default                                  : No
  103. Forced                                   : No
  104. Audio #4
  105. ID                                       : 5
  106. Format                                   : AC-3
  107. Format/Info                              : Audio Coding 3
  108. Commercial name                          : Dolby Digital
  109. Codec ID                                 : A_AC3
  110. Duration                                 : 1 h 50 min
  111. Bit rate mode                            : Constant
  112. Bit rate                                 : 384 kb/s
  113. Channel(s)                               : 6 channels
  114. Channel layout                           : L R C LFE Ls Rs
  115. Sampling rate                            : 48.0 kHz
  116. Frame rate                               : 31.250 FPS (1536 SPF)
  117. Compression mode                         : Lossy
  118. Delay relative to video                  : 900 ms
  119. Stream size                              : 304 MiB (4%)
  120. Title                                    : Cantonese Dolby Digital Audio 5.1 @ 384 kbps  粤语
  121. Language                                 : Chinese
  122. Service kind                             : Complete Main
  123. Default                                  : No
  124. Forced                                   : No
  125. Text #1
  126. ID                                       : 6
  127. Format                                   : PGS
  128. Codec ID                                 : S_HDMV/PGS
  129. Codec ID/Info                            : Picture based subtitle format used on BDs/HD-DVDs
  130. Duration                                 : 1 h 42 min
  131. Bit rate                                 : 34.4 kb/s
  132. Count of elements                        : 3135
  133. Stream size                              : 25.3 MiB (0%)
  134. Title                                    : Chs/SUP  简体
  135. Language                                 : Chinese
  136. Default                                  : Yes
  137. Forced                                   : No
  138. Text #2
  139. ID                                       : 7
  140. Format                                   : PGS
  141. Codec ID                                 : S_HDMV/PGS
  142. Codec ID/Info                            : Picture based subtitle format used on BDs/HD-DVDs
  143. Duration                                 : 1 h 42 min
  144. Bit rate                                 : 34.1 kb/s
  145. Count of elements                        : 2997
  146. Stream size                              : 24.9 MiB (0%)
  147. Title                                    : Cht/SUP  繁体
  148. Language                                 : Chinese
  149. Default                                  : No
  150. Forced                                   : No
  151. Text #3
  152. ID                                       : 8
  153. Format                                   : PGS
  154. Codec ID                                 : S_HDMV/PGS
  155. Codec ID/Info                            : Picture based subtitle format used on BDs/HD-DVDs
  156. Duration                                 : 1 h 42 min
  157. Bit rate                                 : 28.7 kb/s
  158. Count of elements                        : 2586
  159. Stream size                              : 21.0 MiB (0%)
  160. Title                                    : Chs/SUP  简体
  161. Language                                 : Chinese
  162. Default                                  : No
  163. Forced                                   : No
  164. Text #4
  165. ID                                       : 9
  166. Format                                   : PGS
  167. Codec ID                                 : S_HDMV/PGS
  168. Codec ID/Info                            : Picture based subtitle format used on BDs/HD-DVDs
  169. Duration                                 : 1 h 42 min
  170. Bit rate                                 : 30.1 kb/s
  171. Count of elements                        : 2605
  172. Stream size                              : 22.0 MiB (0%)
  173. Title                                    : Cht/SUP  繁体
  174. Language                                 : Chinese
  175. Default                                  : No
  176. Forced                                   : No
  177. Menu
  178. 00:00:00.000                             : en:第 01 章
  179. 00:01:15.241                             : en:第 02 章
  180. 00:06:28.471                             : en:第 03 章
  181. 00:09:21.936                             : en:第 04 章
  182. 00:10:57.114                             : en:第 05 章
  183. 00:13:30.017                             : en:第 06 章
  184. 00:17:39.057                             : en:第 07 章
  185. 00:19:36.591                             : en:第 08 章
  186. 00:24:47.360                             : en:第 09 章
  187. 00:28:54.274                             : en:第 10 章
  188. 00:33:04.106                             : en:第 11 章
  189. 00:38:12.456                             : en:第 12 章
  190. 00:40:32.179                             : en:第 13 章
  191. 00:44:10.272                             : en:第 14 章
  192. 00:46:58.357                             : en:第 15 章
  193. 00:51:26.708                             : en:第 16 章
  194. 00:57:01.209                             : en:第 17 章
  195. 00:59:31.359                             : en:第 18 章
  196. 01:00:52.565                             : en:第 19 章
  197. 01:07:18.784                             : en:第 20 章
  198. 01:11:24.696                             : en:第 21 章
  199. 01:15:27.272                             : en:第 22 章
  200. 01:19:24.134                             : en:第 23 章
  201. 01:23:29.170                             : en:第 24 章
  202. 01:25:33.503                             : en:第 25 章
  203. 01:28:17.375                             : en:第 26 章
  204. 01:32:38.052                             : en:第 27 章
  205. 01:35:40.484                             : en:第 28 章
  206. 01:38:48.755                             : en:第 29 章
  207. 01:40:53.713                             : en:第 30 章
  208. 01:42:58.004                             : en:第 31 章
复制代码

















保举请利用qBittorrent,utorrent,transmission等标准BT软件下载!以获得最快速度。奉求保种!





回复

使用道具 举报

懒得打字嘛,点击右侧快捷回复 【右侧内容,后台自定义】
您需要登录后才可以回帖 登录 | 立即加入

本版积分规则

Archiver|小黑屋| 蓝光电影网 |网站地图

Copyright © 2021 Comsenz Inc. Powered by 蓝光电影网

蓝光电影网

本站内容由用户自主分享和转载自互联网,转载目的在于传递更多信息,并不代表本网赞同其观点和对其真实性负责。

如有侵权、违反国家法律政策行为,请联系我们,我们会第一时间及时清除和处理!

举报反馈邮箱:[email protected]

快速回复 返回顶部 返回列表