找回密码

蓝光电影网

查看: 40|回复: 0

[剧情] 都市煞星[国粤英多音轨/简繁英字幕].Point.of.No.Return.1990.BluRay.1080p.2Audio.TrueHD.5.1.x265.10bit-ALT 9.69GB

[复制链接]
蓝光币
7
发表于 2022-7-28 01:50:48 | 显示全部楼层 |阅读模式


◎标  题 都会煞星
◎译  名 杀手知名 / Point of No Return / Point of Return
◎年  代 1990
◎产  地 中国香港
◎类  别 行动 / 犯罪
◎语  言 粤语
◎上映日期 1990-10-25(中国香港)
◎IMDb评分 5.1/10 (42人评价)
◎IMDb链接 https://www.imdb.com/title/tt0101782/
◎豆瓣评分 6.0/10 (844人评价)
◎豆瓣链接 https://movie.douban.com/subject/1307933/
◎片  长 94 分钟
◎导  演 黎应就 Guy Lai
◎编  剧 庄澄 John Chong
       周振荣 Jan-Wing Chow
◎演  员 张学友 Jacky Cheung
       王祖贤 Joey Wong
       谭耀文 Patrick Tam
       曾江 Kenneth Tsang
       何柏光 Pak-Kwong Ho
       伍国健 Kwok-kin Ng
       文森特·林 Vincent Lyn
       冯克安 Hark-On Fung
       吴浣仪 Yuen Yee Ng
       杨群 Peter Yang Kwan
       鲍方 Fong Pau
       卢惠光 Ken Lo
       王志文 Chi Man Wong
       李炳良 Bing-leung Lee
       罗礼贤 Bruce Law
◎简  介
  蚊叔(曾江 饰)是位职业的杀手代理人,其亲生儿子K.K(谭耀文 饰)和养子金鹰(张学友 饰)都是其手下得力的杀手。在一次行动中,二人结识了Joy(王祖贤 饰),在渐渐的相处中金鹰和Joy天真烂漫的相恋了。金鹰此时却接到了一个使命:替Joy父亲的死对头大碌杀掉Joy父亲。后使命由KK履行,却未能成功,更意外的是,大碌中了KK的飞刀而死。这让杀手团体误以为是KK等人设想干掉了团体的客人大碌,遵照团体的规矩,KK等人必须被正法,而且团体的霍老已经将金鹰、KK、Joy抓了起来,并要求蚊叔亲手处决。一边是亲人的人命,一面是难以抵抗的暴力,蚊叔该若何决定?他们可以逃过此劫吗?
  1. ##### MediaInfo ######
  2. General
  3. Unique ID                                : 194933094417459764107401203400533162086 (0x92A6BF951D738C101DB956D46AC13866)
  4. Complete name                            : Point.of.No.Return.1990.BluRay.1080p.2Audio.TrueHD.5.1.x265.10bit-ALT.mkv
  5. Format                                   : Matroska
  6. Format version                           : Version 4
  7. File size                                : 9.68 GiB
  8. Duration                                 : 1 h 34 min
  9. Overall bit rate mode                    : Variable
  10. Overall bit rate                         : 14.7 Mb/s
  11. Encoded date                             : UTC 2022-02-02 04:24:39
  12. Writing application                      : mkvmerge v49.0.0 ('Sick Of Losing Soulmates') 64-bit
  13. Writing library                          : libebml v1.4.0 + libmatroska v1.6.1
  14. Video
  15. ID                                       : 1
  16. Format                                   : HEVC
  17. Format/Info                              : High Efficiency Video Coding
  18. Format profile                           : Main [email protected]@High
  19. Codec ID                                 : V_MPEGH/ISO/HEVC
  20. Duration                                 : 1 h 34 min
  21. Bit rate                                 : 9 443 kb/s
  22. Width                                    : 1 920 pixels
  23. Height                                   : 1 080 pixels
  24. Display aspect ratio                     : 16:9
  25. Frame rate mode                          : Constant
  26. Frame rate                               : 24.000 FPS
  27. Color space                              : YUV
  28. Chroma subsampling                       : 4:2:0
  29. Bit depth                                : 10 bits
  30. Bits/(Pixel*Frame)                       : 0.190
  31. Stream size                              : 6.22 GiB (64%)
  32. Title                                    : HEVC, [email protected]@High, 24 fps @ 9443 kbps
  33. Writing library                          : x265 3.4+14-gd419c7152:[Windows][GCC 10.2.0][64 bit] 10bit
  34. Encoding settings                        : cpuid=538751111039 / frame-threads=4 / numa-pools=16 / wpp / pmode / pme / no-psnr / no-ssim / log-level=2 / input-csp=1 / input-res=1920x1080 / interlace=0 / total-frames=135860 / level-idc=51 / high-tier=1 / uhd-bd=0 / ref=5 / no-allow-non-conformance / no-repeat-headers / annexb / no-aud / no-hrd / info / hash=0 / no-temporal-layers / open-gop / min-keyint=24 / keyint=240 / gop-lookahead=0 / bframes=6 / b-adapt=2 / b-pyramid / bframe-bias=0 / rc-lookahead=40 / lookahead-slices=0 / NTM4NzU=uuDQuD2mJt9fsCf / scenecut=40 / hist-scenecut=0 / radl=0 / no-splice / no-intra-refresh / ctu=32 / min-cu-size=8 / no-rect / no-amp / max-tu-size=32 / tu-inter-depth=3 / tu-intra-depth=3 / limit-tu=4 / rdoq-level=2 / dynamic-rd=0.00 / no-ssim-rd / signhide / no-tskip / nr-intra=0 / nr-inter=0 / no-constrained-intra / no-strong-intra-smoothing / max-merge=4 / limit-refs=1 / limit-modes / me=3 / subme=4 / merange=25 / temporal-mvp / no-frame-dup / no-hme / weightp / weightb / no-analyze-src-pics / deblock=-3:-3 / no-sao / no-sao-non-deblock / rd=6 / selective-sao=0 / no-early-skip / rskip / no-fast-intra / no-tskip-fast / no-cu-lossless / b-intra / no-splitrd-skip / rdpenalty=0 / psy-rd=2.00 / psy-rdoq=1.00 / no-rd-refine / no-lossless / cbqpoffs=0 / crqpoffs=0 / rc=crf / crf=20.5 / qcomp=0.65 / qpstep=4 / stats-write=0 / stats-read=0 / vbv-maxrate=80000 / vbv-bufsize=80000 / vbv-init=0.9 / crf-max=0.0 / crf-min=0.0 / ipratio=1.40 / pbratio=1.30 / aq-mode=2 / aq-strength=0.85 / cutree / zone-count=0 / no-strict-cbr / qg-size=32 / no-rc-grain / qpmax=69 / qpmin=0 / no-const-vbv / sar=1 / overscan=0 / videoformat=5 / range=0 / colorprim=1 / transfer=1 / colormatrix=1 / chromaloc=0 / display-window=0 / cll=0,0 / min-luma=0 / max-luma=1023 / log2-max-poc-lsb=8 / vui-timing-info / vui-hrd-info / slices=1 / no-opt-qp-pps / no-opt-ref-list-length-pps / no-multi-pass-opt-rps / scenecut-bias=0.05 / hist-threshold=0.03 / no-opt-cu-delta-qp / no-aq-motion / no-hdr10 / no-hdr10-opt / no-dhdr10-opt / no-idr-recovery-sei / analysis-reuse-level=0 / analysis-save-reuse-level=0 / analysis-load-reuse-level=0 / scale-factor=0 / refine-intra=0 / refine-inter=0 / refine-mv=1 / refine-ctu-distortion=0 / no-limit-sao / ctu-info=0 / no-lowpass-dct / refine-analysis-type=0 / copy-pic=1 / max-ausize-factor=1.0 / no-dynamic-refine / no-single-sei / no-hevc-aq / no-svt / no-field / qp-adaptation-range=1.00 / no-scenecut-aware-qpconformance-window-offsets / right=0 / bottom=0 / NTM4NzU= / decoder-max-rate=0
  35. Language                                 : English
  36. Default                                  : Yes
  37. Forced                                   : No
  38. Color range                              : Limited
  39. Color primaries                          : BT.709
  40. Transfer characteristics                 : BT.709
  41. Matrix coefficients                      : BT.709
  42. Audio #1
  43. ID                                       : 2
  44. Format                                   : MLP FBA
  45. Format/Info                              : Meridian Lossless Packing FBA
  46. Commercial name                          : Dolby TrueHD
  47. Codec ID                                 : A_TRUEHD
  48. Duration                                 : 1 h 34 min
  49. Bit rate mode                            : Variable
  50. Bit rate                                 : 1 883 kb/s
  51. Maximum bit rate                         : 2 082 kb/s
  52. Channel(s)                               : 6 channels
  53. Channel layout                           : L R C LFE Ls Rs
  54. Sampling rate                            : 96.0 kHz
  55. Frame rate                               : 1 200.000 FPS (80 SPF)
  56. Compression mode                         : Lossless
  57. Stream size                              : 1.24 GiB (13%)
  58. Title                                    : Cantonese Dolby TrueHD Audio 5.1 @ 2523 kbps
  59. Language                                 : Chinese
  60. Default                                  : Yes
  61. Forced                                   : No
  62. Audio #2
  63. ID                                       : 3
  64. Format                                   : AC-3
  65. Format/Info                              : Audio Coding 3
  66. Commercial name                          : Dolby Digital
  67. Codec ID                                 : A_AC3
  68. Duration                                 : 1 h 34 min
  69. Bit rate mode                            : Constant
  70. Bit rate                                 : 640 kb/s
  71. Channel(s)                               : 6 channels
  72. Channel layout                           : L R C LFE Ls Rs
  73. Sampling rate                            : 48.0 kHz
  74. Frame rate                               : 31.250 FPS (1536 SPF)
  75. Compression mode                         : Lossy
  76. Stream size                              : 432 MiB (4%)
  77. Title                                    : Cantonese Dolby Digital Audio 5.1 @ 640 kbps
  78. Language                                 : Chinese
  79. Service kind                             : Complete Main
  80. Default                                  : No
  81. Forced                                   : No
  82. Audio #3
  83. ID                                       : 4
  84. Format                                   : MLP FBA
  85. Format/Info                              : Meridian Lossless Packing FBA
  86. Commercial name                          : Dolby TrueHD
  87. Codec ID                                 : A_TRUEHD
  88. Duration                                 : 1 h 34 min
  89. Bit rate mode                            : Variable
  90. Bit rate                                 : 1 873 kb/s
  91. Maximum bit rate                         : 2 034 kb/s
  92. Channel(s)                               : 6 channels
  93. Channel layout                           : L R C LFE Ls Rs
  94. Sampling rate                            : 96.0 kHz
  95. Frame rate                               : 1 200.000 FPS (80 SPF)
  96. Compression mode                         : Lossless
  97. Stream size                              : 1.23 GiB (13%)
  98. Title                                    : Mandarin Dolby TrueHD Audio 5.1 @ 2513 kbps
  99. Language                                 : Chinese
  100. Default                                  : No
  101. Forced                                   : No
  102. Audio #4
  103. ID                                       : 5
  104. Format                                   : AC-3
  105. Format/Info                              : Audio Coding 3
  106. Commercial name                          : Dolby Digital
  107. Codec ID                                 : A_AC3
  108. Duration                                 : 1 h 34 min
  109. Bit rate mode                            : Constant
  110. Bit rate                                 : 640 kb/s
  111. Channel(s)                               : 6 channels
  112. Channel layout                           : L R C LFE Ls Rs
  113. Sampling rate                            : 48.0 kHz
  114. Frame rate                               : 31.250 FPS (1536 SPF)
  115. Compression mode                         : Lossy
  116. Stream size                              : 432 MiB (4%)
  117. Title                                    : Mandarin Dolby Digital Audio 5.1 @ 640 kbps
  118. Language                                 : Chinese
  119. Service kind                             : Complete Main
  120. Default                                  : No
  121. Forced                                   : No
  122. Text #1
  123. ID                                       : 6
  124. Format                                   : PGS
  125. Codec ID                                 : S_HDMV/PGS
  126. Codec ID/Info                            : Picture based subtitle format used on BDs/HD-DVDs
  127. Duration                                 : 1 h 31 min
  128. Bit rate                                 : 26.6 kb/s
  129. Count of elements                        : 1691
  130. Stream size                              : 17.3 MiB (0%)
  131. Title                                    : Cht/SUP  原盘繁体
  132. Language                                 : Chinese
  133. Default                                  : No
  134. Forced                                   : No
  135. Text #2
  136. ID                                       : 7
  137. Format                                   : PGS
  138. Codec ID                                 : S_HDMV/PGS
  139. Codec ID/Info                            : Picture based subtitle format used on BDs/HD-DVDs
  140. Duration                                 : 1 h 31 min
  141. Bit rate                                 : 26.3 kb/s
  142. Count of elements                        : 1717
  143. Stream size                              : 17.3 MiB (0%)
  144. Title                                    : Chs/SUP  原盘简体
  145. Language                                 : Chinese
  146. Default                                  : Yes
  147. Forced                                   : No
  148. Text #3
  149. ID                                       : 8
  150. Format                                   : PGS
  151. Codec ID                                 : S_HDMV/PGS
  152. Codec ID/Info                            : Picture based subtitle format used on BDs/HD-DVDs
  153. Duration                                 : 1 h 31 min
  154. Bit rate                                 : 28.4 kb/s
  155. Count of elements                        : 1717
  156. Stream size                              : 18.6 MiB (0%)
  157. Title                                    : Eng/SUP
  158. Language                                 : English
  159. Default                                  : No
  160. Forced                                   : No
  161. Menu
  162. 00:00:00.000                             : en:第 01 章
  163. 00:09:45.708                             : en:第 02 章
  164. 00:17:46.208                             : en:第 03 章
  165. 00:23:35.958                             : en:第 04 章
  166. 00:31:36.875                             : en:第 05 章
  167. 00:39:26.667                             : en:第 06 章
  168. 00:47:00.333                             : en:第 07 章
  169. 00:55:01.833                             : en:第 08 章
  170. 01:02:56.500                             : en:第 09 章
  171. 01:10:40.667                             : en:第 10 章
  172. 01:18:18.958                             : en:第 11 章
  173. 01:24:45.458                             : en:第 12 章
复制代码

















保举请利用qBittorrent,utorrent,transmission等标准BT软件下载!以获得最快速度。奉求保种!





回复

使用道具 举报

懒得打字嘛,点击右侧快捷回复 【右侧内容,后台自定义】
您需要登录后才可以回帖 登录 | 立即加入

本版积分规则

Archiver|小黑屋| 蓝光电影网 |网站地图

Copyright © 2021 Comsenz Inc. Powered by 蓝光电影网

蓝光电影网

本站内容由用户自主分享和转载自互联网,转载目的在于传递更多信息,并不代表本网赞同其观点和对其真实性负责。

如有侵权、违反国家法律政策行为,请联系我们,我们会第一时间及时清除和处理!

举报反馈邮箱:[email protected]

快速回复 返回顶部 返回列表