找回密码

蓝光电影网

查看: 44|回复: 1

[剧情] 同栖生活[简繁英字幕].Parade.2009.1080p.BluRay.DD.5.0.x265-10bit-TAGHD 11.86GB

[复制链接]
蓝光币
7
发表于 2022-7-28 01:50:52 | 显示全部楼层 |阅读模式


◎标  题 同栖生活
◎译  名 东京同栖80后(港) / 检阅式 / Parêdo / Parade
◎片  名 パレード
◎年  代 2009
◎产  地 日本
◎类  别 剧情
◎语  言 日语
◎上映日期 2009-10-12(釜山电影节) / 2010-02-20(日本)
◎IMDb评分 7.2/10 (639人评价)
◎IMDb链接 https://www.imdb.com/title/tt1493070/
◎豆瓣评分 7.7/10 (7158人评价)
◎豆瓣链接 https://movie.douban.com/subject/3986152/
◎片  长 118分钟
◎导  演 行定勋 Isao Yukisada
◎编  剧 行定勋 Isao Yukisada
       吉田修一 Shûichi Yoshida
◎演  员 藤原龙也 Tatsuya Fujiwara
       香里奈 Karina
       贯地谷栞 Shihori Kanjiya
       林遣都 Kento Hayashi
       小出惠介 Keisuke Koide
       竹财辉之助 Terunosuke Takezai
       石桥莲司 Renji Ishibashi
       濑户夏实
       小澤真利奈 Marina Kozawa
       矢柴俊博 Toshihiro Yashiba
       木村绿子 Midoriko Kimura
       中村友理 Yuri Nakamura
       桃濑美咲 Misaki Momose
       野波麻帆 Maho Nonami
       波冈一喜 Kazuki Namioka
       今井刚 Tsuyoshi Imai
       山口修 Osamu Yamaguchi
◎简  介
  位于东京某公寓的单元内,居住着四个年轻人,他们是迷恋先辈女友的大门生杉本良介(小出恵介 饰)、深爱着作为演员男友的无业女大河内琴美(贯地谷しほり 饰)、一心想成为插画师的相马未来(香里奈 饰)以及整天为工作奔走忙碌的电影公司职员伊原直辉(藤原竜也 饰)。他们性情各异,倒 也心心相印,生活波涛不惊。某天,一个年仅18岁的男妓小悟(林遣都 饰)闯入他们的天下,概况安静和谐的生活就此失衡。与此同时,隔邻的奥秘邻人以及四周不竭发生的行丧事务也令这个布满躁动的天下进一步崩塌……                                    
                                本片按照吉田修一的同名原著改编,并荣获第60届柏林电影节国际影评人费比西奖。
  1. ##### MediaInfo ######
  2. General
  3. Unique ID                                : 304299230664854859925476900114113602764 (0xE4EDE668F721B4B770A8BF0AB449A4CC)
  4. Complete name                            : Parade.2009.1080p.BluRay.DD.5.0.x265-10bit-TAGHD.mkv
  5. Format                                   : Matroska
  6. Format version                           : Version 4
  7. File size                                : 11.9 GiB
  8. Duration                                 : 1 h 58 min
  9. Overall bit rate                         : 14.3 Mb/s
  10. Encoded date                             : UTC 2022-07-26 02:29:29
  11. Writing application                      : mkvmerge v42.0.0 ('Overtime') 64-bit
  12. Writing library                          : libebml v1.3.10 + libmatroska v1.5.2
  13. Video
  14. ID                                       : 1
  15. Format                                   : HEVC
  16. Format/Info                              : High Efficiency Video Coding
  17. Format profile                           : Main [email protected]@High
  18. Codec ID                                 : V_MPEGH/ISO/HEVC
  19. Duration                                 : 1 h 58 min
  20. Bit rate                                 : 13.7 Mb/s
  21. Width                                    : 1 920 pixels
  22. Height                                   : 1 080 pixels
  23. Display aspect ratio                     : 16:9
  24. Frame rate mode                          : Constant
  25. Frame rate                               : 23.976 (24000/1001/53875) FPS
  26. Color space                              : YUV
  27. Chroma subsampling                       : 4:2:0
  28. Bit depth                                : 10 bits
  29. Bits/(Pixel*Frame)                       : 0.275
  30. Stream size                              : 11.3 GiB (95%)
  31. Writing library                          : x265 3.0+2-ge71f790de+23:[Windows][GCC 8.2.1][64 bit] Yuuki 10bit
  32. Encoding settings                        : rc=crf / crf=20.5000 / qcomp=0.60 / qpstep=4 / stats-write=0 / stats-read=0 / vbv-maxrate=160000 / vbv-bufsize=160000 / vbv-init=0.9 / crf-max=0.0 / crf-min=0.0 / no-lossless / no-cu-lossless / aq-mode=3 / aq-strength=0.75 / cbqpoffs=-2 / crqpoffs=-2 / ipratio=1.40 / pbratio=1.30 / psy-rd=0.90 / psy-rdoq=0.40 / deblock=-3:-3 / ref=4 / limit-refs=1 / limit-modes / bframes=15 / b-adapt=2 / bframe-bias=0 / b-pyramid / b-intra / weightp / weightb / min-keyint=23 / max-keyint=480 / rc-lookahead=40 / gop-lookahead=0 / NTM4NzU=uuDQuD2mJt9fsCf / scenecut=40 / radl=0 / max-cu-size=32 / min-cu-size=8 / me=3 / subme=7 / merange=24 / rdoq-level=1 / rd=4 / rdpenalty=0 / dynamic-rd=0.00 / no-rd-refine / ----- / no-cutree / no-sao / no-rect / no-amp / no-open-gop / wpp / no-pmode / no-pme / no-psnr / no-ssim / nr-intra=0 / nr-inter=0 / no-constrained-intra / strong-intra-smoothing / max-tu-size=32 / tu-inter-depth=3 / tu-intra-depth=3 / limit-tu=4 / qg-size=8 / qpmax=69 / qpmin=0 / ----- / cpuid=538751111039 / frame-threads=3 / numa-pools=8,0 / log-level=2 / input-csp=1 / input-res=1920x1080 / interlace=0 / level-idc=51 / high-tier=1 / uhd-bd=0 / no-allow-non-conformance / no-repeat-headers / no-aud / no-hrd / info / hash=0 / no-temporal-layers / lookahead-slices=0 / no-splice / no-intra-refresh / no-ssim-rd / signhide / no-tskip / max-merge=3 / temporal-mvp / no-analyze-src-pics / no-sao-non-deblock / no-early-skip / rskip / no-fast-intra / no-tskip-fast / no-splitrd-skip / zone-count=0 / no-strict-cbr / no-rc-grain / no-const-vbv / sar=0 / overscan=0 / videoformat=5 / range=0 / colorprim=2 / transfer=2 / colormatrix=2 / chromaloc=0 / display-window=0 / max-cll=0,0 / min-luma=0 / max-luma=1023 / log2-max-poc-lsb=8 / vui-timing-info / vui-hrd-info / slices=1 / no-opt-qp-pps / no-opt-ref-list-length-pps / no-multi-pass-opt-rps / scenecut-bias=0.05 / no-opt-cu-delta-qp / no-aq-motion / no-hdr / no-hdr-opt / no-dhdr10-opt / no-idr-recovery-sei / analysis-reuse-level=5 / scale-factor=0 / refine-intra=0 / refine-inter=0 / refine-mv=0 / refine-ctu-distortion=0 / no-limit-sao / ctu-info=0 / no-lowpass-dct / refine-analysis-type=0 / copy-pic=1 / max-ausize-factor=1.0 / no-dynamic-refine / no-single-sei / no-hevc-aq / qp-adaptation-range=1.00
  33. Default                                  : Yes
  34. Forced                                   : No
  35. Audio
  36. ID                                       : 2
  37. Format                                   : AC-3
  38. Format/Info                              : Audio Coding 3
  39. Commercial name                          : Dolby Digital
  40. Codec ID                                 : A_AC3
  41. Duration                                 : 1 h 58 min
  42. Bit rate mode                            : Constant
  43. Bit rate                                 : 640 kb/s
  44. Channel(s)                               : 5 channels
  45. Channel layout                           : L R C Ls Rs
  46. Sampling rate                            : 48.0 kHz
  47. Frame rate                               : 31.250 FPS (1536 SPF)
  48. Compression mode                         : Lossy
  49. Stream size                              : 542 MiB (4%)
  50. Language                                 : Japanese
  51. Service kind                             : Complete Main
  52. Default                                  : Yes
  53. Forced                                   : No
  54. Text #1
  55. ID                                       : 3
  56. Format                                   : PGS
  57. Muxing mode                              : zlib
  58. Codec ID                                 : S_HDMV/PGS
  59. Codec ID/Info                            : Picture based subtitle format used on BDs/HD-DVDs
  60. Duration                                 : 1 h 57 min
  61. Bit rate                                 : 27.4 kb/s
  62. Count of elements                        : 2362
  63. Stream size                              : 23.1 MiB (0%)
  64. Language                                 : English
  65. Default                                  : No
  66. Forced                                   : No
  67. Text #2
  68. ID                                       : 4
  69. Format                                   : PGS
  70. Muxing mode                              : zlib
  71. Codec ID                                 : S_HDMV/PGS
  72. Codec ID/Info                            : Picture based subtitle format used on BDs/HD-DVDs
  73. Duration                                 : 1 h 53 min
  74. Bit rate                                 : 20.3 kb/s
  75. Count of elements                        : 2832
  76. Stream size                              : 16.5 MiB (0%)
  77. Title                                    : CHS
  78. Language                                 : Chinese
  79. Default                                  : Yes
  80. Forced                                   : No
  81. Text #3
  82. ID                                       : 5
  83. Format                                   : PGS
  84. Muxing mode                              : zlib
  85. Codec ID                                 : S_HDMV/PGS
  86. Codec ID/Info                            : Picture based subtitle format used on BDs/HD-DVDs
  87. Duration                                 : 1 h 53 min
  88. Bit rate                                 : 20.8 kb/s
  89. Count of elements                        : 2832
  90. Stream size                              : 16.9 MiB (0%)
  91. Title                                    : CHT
  92. Language                                 : Chinese
  93. Default                                  : No
  94. Forced                                   : No
  95. Menu
  96. 00:00:00.000                             : en:第 01 章
  97. 00:06:27.012                             : en:第 02 章
  98. 00:12:10.939                             : en:第 03 章
  99. 00:15:54.954                             : en:第 04 章
  100. 00:25:20.185                             : en:第 05 章
  101. 00:32:28.071                             : en:第 06 章
  102. 00:38:48.701                             : en:第 07 章
  103. 00:42:47.440                             : en:第 08 章
  104. 00:47:07.033                             : en:第 09 章
  105. 00:53:39.174                             : en:第 10 章
  106. 00:57:30.447                             : en:第 11 章
  107. 01:05:21.167                             : en:第 12 章
  108. 01:09:32.043                             : en:第 13 章
  109. 01:17:51.083                             : en:第 14 章
  110. 01:23:13.197                             : en:第 15 章
  111. 01:28:40.065                             : en:第 16 章
  112. 01:35:44.989                             : en:第 17 章
  113. 01:41:17.655                             : en:第 18 章
  114. 01:47:35.824                             : en:第 19 章
  115. 01:55:02.020                             : en:第 20 章
复制代码

















保举请利用qBittorrent,utorrent,transmission等标准BT软件下载!以获得最快速度。奉求保种!





回复

使用道具 举报

蓝光币
163
发表于 2022-7-29 23:19:40 | 显示全部楼层
楼主发贴辛苦了,谢谢楼主分享!我觉得蓝光电影网是注册对了!
回复 支持 反对

使用道具 举报

懒得打字嘛,点击右侧快捷回复 【右侧内容,后台自定义】
您需要登录后才可以回帖 登录 | 立即加入

本版积分规则

Archiver|小黑屋| 蓝光电影网 |网站地图

Copyright © 2021 Comsenz Inc. Powered by 蓝光电影网

蓝光电影网

本站内容由用户自主分享和转载自互联网,转载目的在于传递更多信息,并不代表本网赞同其观点和对其真实性负责。

如有侵权、违反国家法律政策行为,请联系我们,我们会第一时间及时清除和处理!

举报反馈邮箱:[email protected]

快速回复 返回顶部 返回列表