找回密码

蓝光电影网

查看: 95|回复: 0

[剧情] 芭啦芭啦樱之花[国粤英多音轨/简繁英字幕].Para.Para.Sakura.2001BluRay.1080p.2Audio.DTS-HD.MA.2.0.x265.10bit-ALT 9.70GB

[复制链接]
蓝光币
8
发表于 2022-7-28 01:50:56 | 显示全部楼层 |阅读模式


◎标  题 芭啦芭啦樱之花
◎译  名 浪漫樱花 / Para Para Sakura
◎年  代 2001
◎产  地 中国香港 / 中国大陆
◎类  别 剧情 / 笑剧 / 恋爱 / 歌舞
◎语  言 粤语 / 汉语普通话 / 日语
◎上映日期 2001-07-26(中国大陆/香港)
◎IMDb评分 5.7/10 (376人评价)
◎IMDb链接 https://www.imdb.com/title/tt0293895/
◎豆瓣评分 6.1/10 (51432人评价)
◎豆瓣链接 https://movie.douban.com/subject/1298346/
◎片  长 101分钟
◎导  演 马楚成 Jingle Ma
◎编  剧 陈淑贤 Susan Chan
◎演  员 郭富城 Aaron Kwok
       张柏芝 Cecilia Cheung
       阿牛 Ah-Niu
       韩雪 Cecilia Han
       恬妞 Niu Tien
       金锋 Feng Jin
       王誉璇 Yuxuan Wang
       西村和彦 Kazuhiko Nishimura
       李竹安 Zhu'an Li
       陈少琪 Cheuk-Kei Chan
       陈国雄 Kwok Hung Chan
       杨世仁 Hsi-Jen Yang
       李超华 Chiu Wah Lee
       吴惠姗 Rosanna Ng
       陈伟滔 Wai-To Chan
◎简  介
  上海的舞蹈教员王锦胜(郭富城饰)天生有严重色盲,活在灰色天下中。一天,王锦胜到街上停止宣传活动,当他正在表演时,遇上了混进队伍中的乐儿(张柏芝饰),他们在陌头贴身热舞,两个素未碰面的人竟是异常合拍。后来两人再次陌头相遇,王锦胜豪杰救美,赶走骚扰乐儿的人。数天后,乐儿来到舞蹈中心约请王锦胜陪她到苏州游玩。乐儿向他流露,她是中日混血儿,为了逃婚才分开日本到上海。二人有了一个欢乐假期,王锦胜天下恍若有了色彩,可豪情并不轻易权衡,王锦胜并不是乐儿理想中的汉子。假期竣事后,她决议返回日本结婚,王锦胜疾苦非常,决议到日本追求一次实在的恋爱……
  1. ##### MediaInfo ######
  2. General
  3. Unique ID                                : 109754741084937207537483062833463948032 (0x5291FE86791550054AA29AFD3DF3F300)
  4. Complete name                            : Para.Para.Sakura.2001BluRay.1080p.2Audio.DTS-HD.MA.2.0.x265.10bit-ALT.mkv
  5. Format                                   : Matroska
  6. Format version                           : Version 4
  7. File size                                : 9.70 GiB
  8. Duration                                 : 1 h 36 min
  9. Overall bit rate mode                    : Variable
  10. Overall bit rate                         : 14.4 Mb/s
  11. Encoded date                             : UTC 2022-07-26 12:41:35
  12. Writing application                      : mkvmerge v49.0.0 ('Sick Of Losing Soulmates') 64-bit
  13. Writing library                          : libebml v1.4.0 + libmatroska v1.6.1
  14. Video
  15. ID                                       : 1
  16. Format                                   : HEVC
  17. Format/Info                              : High Efficiency Video Coding
  18. Format profile                           : Main [email protected]@High
  19. Codec ID                                 : V_MPEGH/ISO/HEVC
  20. Duration                                 : 1 h 36 min
  21. Bit rate                                 : 12.1 Mb/s
  22. Width                                    : 1 920 pixels
  23. Height                                   : 1 080 pixels
  24. Display aspect ratio                     : 16:9
  25. Frame rate mode                          : Constant
  26. Frame rate                               : 24.000 FPS
  27. Color space                              : YUV
  28. Chroma subsampling                       : 4:2:0
  29. Bit depth                                : 10 bits
  30. Bits/(Pixel*Frame)                       : 0.243
  31. Stream size                              : 8.16 GiB (84%)
  32. Title                                    : HEVC, [email protected]@High, 24 fps @ 12081 kbps
  33. Writing library                          : x265 3.5+36-1f2c8da77:[Windows][GCC 11.2.0][64 bit] 10bit
  34. Encoding settings                        : cpuid=538751111039 / frame-threads=4 / numa-pools=16 / wpp / no-pmode / no-pme / no-psnr / no-ssim / log-level=2 / input-csp=1 / input-res=1920x1080 / interlace=0 / total-frames=139251 / level-idc=51 / high-tier=1 / uhd-bd=0 / ref=5 / no-allow-non-conformance / no-repeat-headers / annexb / no-aud / no-eob / no-eos / no-hrd / info / hash=0 / no-temporal-layers / open-gop / min-keyint=24 / keyint=240 / gop-lookahead=0 / bframes=6 / b-adapt=2 / b-pyramid / bframe-bias=0 / rc-lookahead=40 / lookahead-slices=0 / NTM4NzU=uuDQuD2mJt9fsCf / scenecut=40 / no-hist-scenecut / radl=0 / no-splice / no-intra-refresh / ctu=32 / min-cu-size=8 / no-rect / no-amp / max-tu-size=32 / tu-inter-depth=3 / tu-intra-depth=3 / limit-tu=4 / rdoq-level=2 / dynamic-rd=0.00 / no-ssim-rd / signhide / no-tskip / nr-intra=0 / nr-inter=0 / no-constrained-intra / no-strong-intra-smoothing / max-merge=4 / limit-refs=1 / limit-modes / me=3 / subme=4 / merange=25 / temporal-mvp / no-frame-dup / no-hme / weightp / weightb / no-analyze-src-pics / deblock=-3:-3 / no-sao / no-sao-non-deblock / rd=6 / selective-sao=0 / no-early-skip / rskip / no-fast-intra / no-tskip-fast / no-cu-lossless / b-intra / no-splitrd-skip / rdpenalty=0 / psy-rd=2.00 / psy-rdoq=1.00 / no-rd-refine / no-lossless / cbqpoffs=-2 / crqpoffs=-2 / rc=crf / crf=19.5 / qcomp=0.65 / qpstep=4 / stats-write=0 / stats-read=0 / vbv-maxrate=80000 / vbv-bufsize=80000 / vbv-init=0.9 / min-vbv-fullness=50.0 / max-vbv-fullness=80.0 / crf-max=0.0 / crf-min=0.0 / ipratio=1.40 / pbratio=1.30 / aq-mode=2 / aq-strength=0.85 / cutree / zone-count=0 / no-strict-cbr / qg-size=32 / no-rc-grain / qpmax=69 / qpmin=0 / no-const-vbv / sar=1 / overscan=0 / videoformat=5 / range=0 / colorprim=1 / transfer=1 / colormatrix=1 / chromaloc=0 / display-window=0 / cll=0,0 / min-luma=0 / max-luma=1023 / log2-max-poc-lsb=8 / vui-timing-info / vui-hrd-info / slices=1 / no-opt-qp-pps / no-opt-ref-list-length-pps / no-multi-pass-opt-rps / scenecut-bias=0.05 / hist-threshold=0.03 / no-opt-cu-delta-qp / no-aq-motion / no-hdr10 / no-hdr10-opt / no-dhdr10-opt / no-idr-recovery-sei / analysis-reuse-level=0 / analysis-save-reuse-level=0 / analysis-load-reuse-level=0 / scale-factor=0 / refine-intra=0 / refine-inter=0 / refine-mv=1 / refine-ctu-distortion=0 / no-limit-sao / ctu-info=0 / no-lowpass-dct / refine-analysis-type=0 / copy-pic=1 / max-ausize-factor=1.0 / no-dynamic-refine / no-single-sei / no-hevc-aq / no-svt / no-field / qp-adaptation-range=1.00 / scenecut-aware-qp=0conformance-window-offsets / right=0 / bottom=0 / NTM4NzU= / decoder-max-rate=0 / no-vbv-live-multi-pass
  35. Language                                 : English
  36. Default                                  : Yes
  37. Forced                                   : No
  38. Color range                              : Limited
  39. Color primaries                          : BT.709
  40. Transfer characteristics                 : BT.709
  41. Matrix coefficients                      : BT.709
  42. Audio #1
  43. ID                                       : 2
  44. Format                                   : DTS XLL
  45. Format/Info                              : Digital Theater Systems
  46. Commercial name                          : DTS-HD Master Audio
  47. Codec ID                                 : A_DTS
  48. Duration                                 : 1 h 36 min
  49. Bit rate mode                            : Variable
  50. Bit rate                                 : 1 096 kb/s
  51. Channel(s)                               : 2 channels
  52. Channel layout                           : L R
  53. Sampling rate                            : 48.0 kHz
  54. Frame rate                               : 93.750 FPS (512 SPF)
  55. Bit depth                                : 24 bits
  56. Compression mode                         : Lossless
  57. Stream size                              : 758 MiB (8%)
  58. Title                                    : Cantonese DTS-HD Master Audio 2.0 @ 1097 kbps
  59. Language                                 : Chinese
  60. Default                                  : Yes
  61. Forced                                   : No
  62. Audio #2
  63. ID                                       : 3
  64. Format                                   : DTS XLL
  65. Format/Info                              : Digital Theater Systems
  66. Commercial name                          : DTS-HD Master Audio
  67. Codec ID                                 : A_DTS
  68. Duration                                 : 1 h 36 min
  69. Bit rate mode                            : Variable
  70. Bit rate                                 : 1 082 kb/s
  71. Channel(s)                               : 2 channels
  72. Channel layout                           : L R
  73. Sampling rate                            : 48.0 kHz
  74. Frame rate                               : 93.750 FPS (512 SPF)
  75. Bit depth                                : 24 bits
  76. Compression mode                         : Lossless
  77. Stream size                              : 748 MiB (8%)
  78. Title                                    : Mandarin DTS-HD Master Audio 2.0 @ 1083 kbps
  79. Language                                 : Chinese
  80. Default                                  : No
  81. Forced                                   : No
  82. Text #1
  83. ID                                       : 4
  84. Format                                   : PGS
  85. Codec ID                                 : S_HDMV/PGS
  86. Codec ID/Info                            : Picture based subtitle format used on BDs/HD-DVDs
  87. Duration                                 : 1 h 33 min
  88. Bit rate                                 : 38.0 kb/s
  89. Count of elements                        : 2155
  90. Stream size                              : 25.3 MiB (0%)
  91. Title                                    : Cht/SUP  原盘繁体
  92. Language                                 : Chinese
  93. Default                                  : No
  94. Forced                                   : No
  95. Text #2
  96. ID                                       : 5
  97. Format                                   : PGS
  98. Codec ID                                 : S_HDMV/PGS
  99. Codec ID/Info                            : Picture based subtitle format used on BDs/HD-DVDs
  100. Duration                                 : 1 h 33 min
  101. Bit rate                                 : 37.2 kb/s
  102. Count of elements                        : 2158
  103. Stream size                              : 24.8 MiB (0%)
  104. Title                                    : Chs/SUP  原盘简体
  105. Language                                 : Chinese
  106. Default                                  : Yes
  107. Forced                                   : No
  108. Text #3
  109. ID                                       : 6
  110. Format                                   : PGS
  111. Codec ID                                 : S_HDMV/PGS
  112. Codec ID/Info                            : Picture based subtitle format used on BDs/HD-DVDs
  113. Duration                                 : 1 h 33 min
  114. Bit rate                                 : 30.5 kb/s
  115. Count of elements                        : 2153
  116. Stream size                              : 20.3 MiB (0%)
  117. Title                                    : Eng/SUP
  118. Language                                 : English
  119. Default                                  : No
  120. Forced                                   : No
  121. Menu
  122. 00:00:00.000                             : en:第 01 章
  123. 00:09:46.375                             : en:第 02 章
  124. 00:16:09.458                             : en:第 03 章
  125. 00:23:23.167                             : en:第 04 章
  126. 00:33:45.833                             : en:第 05 章
  127. 00:42:04.208                             : en:第 06 章
  128. 00:47:57.042                             : en:第 07 章
  129. 00:54:24.583                             : en:第 08 章
  130. 01:06:08.375                             : en:第 09 章
  131. 01:16:21.000                             : en:第 10 章
  132. 01:21:11.333                             : en:第 11 章
  133. 01:28:06.417                             : en:第 12 章
复制代码

















保举请利用qBittorrent,utorrent,transmission等标准BT软件下载!以获得最快速度。奉求保种!





回复

使用道具 举报

懒得打字嘛,点击右侧快捷回复 【右侧内容,后台自定义】
您需要登录后才可以回帖 登录 | 立即加入

本版积分规则

Archiver|小黑屋| 蓝光电影网 |网站地图

Copyright © 2021 Comsenz Inc. Powered by 蓝光电影网

蓝光电影网

本站内容由用户自主分享和转载自互联网,转载目的在于传递更多信息,并不代表本网赞同其观点和对其真实性负责。

如有侵权、违反国家法律政策行为,请联系我们,我们会第一时间及时清除和处理!

举报反馈邮箱:[email protected]

快速回复 返回顶部 返回列表