找回密码

蓝光电影网

查看: 33|回复: 0

[剧情] 逃狱兄弟2[国语音轨/简繁英字幕].Breakout.Brothers.2.2021.1080p.BluRay.DTS.x265-10bit-BATHD 5.17GB

[复制链接]
蓝光币
7
发表于 2022-7-28 01:51:04 | 显示全部楼层 |阅读模式


◎标  题 逃狱兄弟2
◎译  名 逃出行動2 / Breakout Brothers 2
◎片  名 逃獄兄弟2
◎年  代 2021
◎产  地 中国香港
◎类  别 笑剧 / 犯罪
◎语  言 粤语 / 汉语普通话
◎上映日期 2021-12-24(中国大陆收集)
◎IMDb评分 5.9/10 (28人评价)
◎IMDb链接 https://www.imdb.com/title/tt16756914/
◎豆瓣评分 5.2/10 (3535人评价)
◎豆瓣链接 https://movie.douban.com/subject/35402783/
◎片  长 85分钟
◎导  演 麦浩邦 Ho-Bon Mak
◎演  员 谭耀文 Patrick Tam
       张继聪 Louis Cheung
       吴卓羲 Ron Ng
       张建声 Justin Cheung
       栢天男 Adam Pak
       黄德斌 Tak-bun Wong
       邓月平 Larine Tang
◎简  介
  滾筒(譚耀文 飾)、建天(栢天男 飾)、刀疤(張建聲 飾)和浩正(張繼聰 飾)經歷上一次逃獄之後,性情和處事上也改變很多,眾人也安份守己,希望能盡快完成監禁,這令監獄內获得久違了的平靜。年轻企業家賀俊(吳卓羲 飾)被控指使他人犯罪,暫時要哐汉驅彛m然三傇箩岵砰_庭審訊,但一向高屋建瓴的賀俊不慣低頭活於人下,於是貫徹在商界以錢能解決問題的理念,成功利誘獄中兩大勢力,滾筒和刀疤的手下投靠他,將監獄构成一傄再R俊獨大的新场面。 賀俊得知案件有新証人控告自己,面臨被判終身監禁,於是以巨額利誘曾經逃獄的滾筒、建天、刀疤和浩正協助逃獄,並承諾會放置大家一路潛逃到泰國。何如眾民气態改變,不為錢所動,為家人、為義氣,堅拒為錢順從賀俊,使賀俊不惜以大家的弱點作威脅,用手段迫使眾人答應,大家在無奈之下就範⋯⋯
  1. ##### MediaInfo ######
  2. General
  3. Unique ID                                : 310382942190750454282604982671702501183 (0xE981948BDE3BF037DA903AFD6C00273F)
  4. Complete name                            : Breakout.Brothers.2.2021.1080p.BluRay.DTS.x265-10bit-BATHD.mkv
  5. Format                                   : Matroska
  6. Format version                           : Version 4
  7. File size                                : 5.17 GiB
  8. Duration                                 : 1 h 25 min
  9. Overall bit rate                         : 8 687 kb/s
  10. Movie name                               : Breakout Brothers 2 2021 1080p BluRay DD5.1 x265-10bit-HDS
  11. Encoded date                             : UTC 2022-07-26 04:21:33
  12. Writing application                      : mkvmerge v67.0.0 ('Under Stars') 64-bit
  13. Writing library                          : libebml v1.4.2 + libmatroska v1.6.4
  14. Video
  15. ID                                       : 1
  16. Format                                   : HEVC
  17. Format/Info                              : High Efficiency Video Coding
  18. Format profile                           : Main [email protected]@High
  19. Codec ID                                 : V_MPEGH/ISO/HEVC
  20. Duration                                 : 1 h 25 min
  21. Bit rate                                 : 7 135 kb/s
  22. Width                                    : 1 920 pixels
  23. Height                                   : 804 pixels
  24. Display aspect ratio                     : 2.40:1
  25. Frame rate mode                          : Constant
  26. Frame rate                               : 24.000 FPS
  27. Color space                              : YUV
  28. Chroma subsampling                       : 4:2:0
  29. Bit depth                                : 10 bits
  30. Bits/(Pixel*Frame)                       : 0.193
  31. Stream size                              : 4.25 GiB (82%)
  32. Title                                    : [email protected]
  33. Writing library                          : x265 - H.265/HEVC codec
  34. Default                                  : Yes
  35. Forced                                   : No
  36. Audio
  37. ID                                       : 2
  38. Format                                   : DTS
  39. Format/Info                              : Digital Theater Systems
  40. Codec ID                                 : A_DTS
  41. Duration                                 : 1 h 25 min
  42. Bit rate mode                            : Constant
  43. Bit rate                                 : 1 510 kb/s
  44. Channel(s)                               : 6 channels
  45. Channel layout                           : C L R Ls Rs LFE
  46. Sampling rate                            : 48.0 kHz
  47. Frame rate                               : 93.750 FPS (512 SPF)
  48. Bit depth                                : 24 bits
  49. Compression mode                         : Lossy
  50. Stream size                              : 920 MiB (17%)
  51. Title                                    : Mandarin
  52. Language                                 : Chinese
  53. Default                                  : Yes
  54. Forced                                   : No
  55. Text #1
  56. ID                                       : 3
  57. Format                                   : PGS
  58. Muxing mode                              : zlib
  59. Codec ID                                 : S_HDMV/PGS
  60. Codec ID/Info                            : Picture based subtitle format used on BDs/HD-DVDs
  61. Duration                                 : 1 h 22 min
  62. Bit rate                                 : 23.6 kb/s
  63. Count of elements                        : 2265
  64. Stream size                              : 13.9 MiB (0%)
  65. Title                                    : CHS
  66. Language                                 : Chinese
  67. Default                                  : Yes
  68. Forced                                   : No
  69. Text #2
  70. ID                                       : 4
  71. Format                                   : PGS
  72. Muxing mode                              : zlib
  73. Codec ID                                 : S_HDMV/PGS
  74. Codec ID/Info                            : Picture based subtitle format used on BDs/HD-DVDs
  75. Duration                                 : 1 h 22 min
  76. Bit rate                                 : 24.2 kb/s
  77. Count of elements                        : 2265
  78. Stream size                              : 14.2 MiB (0%)
  79. Title                                    : CHT
  80. Language                                 : Chinese
  81. Default                                  : Yes
  82. Forced                                   : No
  83. Text #3
  84. ID                                       : 5
  85. Format                                   : PGS
  86. Muxing mode                              : zlib
  87. Codec ID                                 : S_HDMV/PGS
  88. Codec ID/Info                            : Picture based subtitle format used on BDs/HD-DVDs
  89. Duration                                 : 1 h 21 min
  90. Bit rate                                 : 36.2 kb/s
  91. Count of elements                        : 1957
  92. Stream size                              : 21.2 MiB (0%)
  93. Title                                    : ENG
  94. Language                                 : English
  95. Default                                  : Yes
  96. Forced                                   : No
  97. Menu
  98. 00:00:00.000                             : en:第 01 章
  99. 00:07:39.583                             : en:第 02 章
  100. 00:12:07.167                             : en:第 03 章
  101. 00:17:59.458                             : en:第 04 章
  102. 00:24:37.625                             : en:第 05 章
  103. 00:29:37.167                             : en:第 06 章
  104. 00:36:57.208                             : en:第 07 章
  105. 00:41:44.375                             : en:第 08 章
  106. 00:48:19.417                             : en:第 09 章
  107. 00:56:34.833                             : en:第 10 章
  108. 01:09:44.083                             : en:第 11 章
  109. 01:20:18.833                             : en:第 12 章
复制代码

















保举请利用qBittorrent,utorrent,transmission等标准BT软件下载!以获得最快速度。奉求保种!





回复

使用道具 举报

懒得打字嘛,点击右侧快捷回复 【右侧内容,后台自定义】
您需要登录后才可以回帖 登录 | 立即加入

本版积分规则

Archiver|小黑屋| 蓝光电影网 |网站地图

Copyright © 2021 Comsenz Inc. Powered by 蓝光电影网

蓝光电影网

本站内容由用户自主分享和转载自互联网,转载目的在于传递更多信息,并不代表本网赞同其观点和对其真实性负责。

如有侵权、违反国家法律政策行为,请联系我们,我们会第一时间及时清除和处理!

举报反馈邮箱:[email protected]

快速回复 返回顶部 返回列表