找回密码

蓝光电影网

查看: 122|回复: 1

[剧情] 玩叛游戏[中英字幕].Deception.2008.1080p.BluRay.x265.10bit-MiniHD 8.79GB

[复制链接]
蓝光币
8
发表于 2022-7-28 01:51:07 | 显示全部楼层 |阅读模式


◎标  题 玩叛游戏
◎译  名 看客 / 桃色名单 / 豪情圈套 / 观光者 / 圈套
◎片  名 Deception
◎年  代 2008
◎产  地 美国
◎类  别 剧情 / 悬疑 / 惊悚 / 犯罪
◎语  言 英语
◎上映日期 2008-04-25
◎IMDb评分 6.1/10 (38749人评价)
◎IMDb链接 https://www.imdb.com/title/tt0800240/
◎豆瓣评分 6.4/10 (8592人评价)
◎豆瓣链接 https://movie.douban.com/subject/1916995/
◎片  长 107 分钟
◎导  演 Marcel Langenegger Marcel Langenegger
◎编  剧 马克·鲍姆贝克 Mark Bomback
◎演  员 伊万·麦克格雷格 Ewan McGregor
       休·杰克曼 Hugh Jackman
       米歇尔·威廉姆斯 Michelle Williams
       布鲁斯·奥尔特曼 Bruce Altman
       安德鲁·金斯伯格 Andrew Ginsburg
       斯蒂芬妮罗斯哈伯尔 Stephanie Roth Haberle
       但丁·斯宾诺蒂 Dante Spinotti
        Melissa Rae Mahon
        Holly Cruikshank
       Deborah Yates Deborah Yates
       娜塔莎·亨斯屈奇 Natasha Henstridge
       夏洛特·兰普林 Charlotte Rampling
       比尔·坎普 Bill Camp
       佐伊·派瑞 Zoe Perry
       阿雅·卡什 Aya Cash
       李美琪 Maggie Q
       皮特·J.费尔南德斯 Peter J. Fernandez
       玛格丽特·柯林 Margaret Colin
       瑞切尔·泰勒 Rachael Taylor
       弗兰克·迪尔 Frank Deal
       保罗·斯帕克斯 Paul Sparks
       史蒂文·韦斯 Steven Weisz
       Daniel Lugo Daniel Lugo
        Brian Slaten
       帕兹·德拉维尔塔 Paz de la Huerta
       弗洛伦西娅·洛扎诺 Florencia Lozano
       布拉泽易登道格拉斯 Brother Eden Douglas
       彼得·斯卡纳维诺 Peter Scanavino
       哈维尔·戈迪诺 Javier Godino
       丽莎盖伊·汉密尔顿 LisaGay Hamilton
       Sonny Vellozzi Sonny Vellozzi
       丹尼·伯斯坦 Danny Burstein
        Corinne Palermo
       Fady Kerko Fady Kerko
       理查德·肖特 Richard Short
       姗兰·克里克 Shannan Click
       阿诺德·瑞夫金 Arnold Rifkin
       休·杰克曼 Hugh Jackman
       约翰·帕勒莫 John Palermo
       大卫·L·布斯 David L. Bushell
       拉民·贾瓦迪 Ramin Djawadi
       但丁·斯宾诺蒂 Dante Spinotti
       道格拉斯·克莱斯 Douglas Crise
       克里斯蒂安·瓦格纳 Christian Wagner
       邦妮·蒂默曼 Bonnie Timmermann
       John Kasarda John Kasarda
       帕特里季亚·冯·布兰登斯坦 Patrizia von Brandenstein
       Sue Gandy Sue Gandy
       Allen Weisinger Allen Weisinger
       Susana Sánchez Susana Sánchez
       Anita Roganovic Anita Roganovic
       Luis Casacuberta Luis Casacuberta
       Geoff McAuliffe Geoff McAuliffe
       Jimi Simmons Jimi Simmons
◎标  签 悬疑 / 美国 / EwanMcGregor / HughJackman / 美国电影 / 剧情 / 2008 / 犯罪
◎简  介
  故步自封的会计师乔纳森(伊万·麦克格雷格 Ewan McGregor 饰)意外结识风姿潇洒的律师怀亚特(休·杰克曼 Hugh Jackman 饰),怀亚特的热情与诙谐让这位极端压制自我的会计师看到了这个天下金融中心富贵背后的奢侈。怀亚特与乔纳森无所不谈,他告之乔纳森存在一个奥秘的性爱俱乐部,那边有无数希望和汉子发生一夜情的美男,乔纳森对此表示出向往。怀亚特出差前与乔纳森拿错电话,乔纳森意外接到来自性爱俱乐部的电话约请,斟酌再三以后乔纳森终极走入了那片愿望之地,而且在一次约会中偶遇自己在地铁中已经遭受的心仪女子“S”。正当乔纳森完全沉醉在幸运之时,意外发生了。自己在旅店房间被打晕,“S”遭受绑架,怀亚特奥秘失落,一会儿恍如他这段已经的履历只发生在自己的妄想当中……
  1. ##### MediaInfo ######
  2. General
  3. Unique ID                                : 125438486023983465776089567067107971737 (0x5E5E92DA26A30B4E51472C52394B5299)
  4. Complete name                            : Deception.2008.1080p.BluRay.x265.10bit-MiniHD.mkv
  5. Format                                   : Matroska
  6. Format version                           : Version 4
  7. File size                                : 8.79 GiB
  8. Duration                                 : 1 h 47 min
  9. Overall bit rate                         : 11.7 Mb/s
  10. Movie name                               : Deception 2008 1080p BluRay x265 10bit MNHD-FRDS
  11. Encoded date                             : UTC 2021-05-19 09:01:06
  12. Writing application                      : mkvmerge v56.1.0 ('My Friend') 64-bit
  13. Writing library                          : libebml v1.4.2 + libmatroska v1.6.4
  14. Video
  15. ID                                       : 1
  16. Format                                   : HEVC
  17. Format/Info                              : High Efficiency Video Coding
  18. Format profile                           : Main [email protected]@High
  19. Codec ID                                 : V_MPEGH/ISO/HEVC
  20. Duration                                 : 1 h 47 min
  21. Bit rate                                 : 11.0 Mb/s
  22. Width                                    : 1 920 pixels
  23. Height                                   : 800 pixels
  24. Display aspect ratio                     : 2.40:1
  25. Frame rate mode                          : Constant
  26. Frame rate                               : 23.976 (24000/1001/53875) FPS
  27. Color space                              : YUV
  28. Chroma subsampling                       : 4:2:0
  29. Bit depth                                : 10 bits
  30. Bits/(Pixel*Frame)                       : 0.299
  31. Stream size                              : 8.28 GiB (94%)
  32. Writing library                          : x265 3.5+9-bf91444e0:[Windows][MSVC 1928][64 bit] 10bit
  33. Encoding settings                        : cpuid=538751111039 / frame-threads=4 / numa-pools=16 / wpp / pmode / no-pme / no-psnr / no-ssim / log-level=2 / input-csp=1 / input-res=1920x800 / interlace=0 / total-frames=155112 / level-idc=0 / high-tier=1 / uhd-bd=0 / ref=6 / no-allow-non-conformance / no-repeat-headers / annexb / no-aud / no-eob / no-eos / no-hrd / info / hash=0 / no-temporal-layers / no-open-gop / min-keyint=1 / keyint=250 / gop-lookahead=0 / bframes=8 / b-adapt=2 / b-pyramid / bframe-bias=0 / rc-lookahead=100 / lookahead-slices=0 / NTM4NzU=uuDQuD2mJt9fsCf / scenecut=40 / hist-scenecut=0 / radl=0 / no-splice / no-intra-refresh / ctu=32 / min-cu-size=8 / no-rect / no-amp / max-tu-size=32 / tu-inter-depth=4 / tu-intra-depth=4 / limit-tu=0 / rdoq-level=2 / dynamic-rd=0.00 / no-ssim-rd / signhide / tskip / nr-intra=0 / nr-inter=0 / no-constrained-intra / strong-intra-smoothing / max-merge=5 / limit-refs=0 / no-limit-modes / me=3 / subme=7 / merange=57 / temporal-mvp / no-frame-dup / no-hme / weightp / weightb / no-analyze-src-pics / deblock=-3:-3 / no-sao / no-sao-non-deblock / rd=4 / selective-sao=0 / no-early-skip / no-rskip / no-fast-intra / no-tskip-fast / no-cu-lossless / b-intra / no-splitrd-skip / rdpenalty=0 / psy-rd=1.50 / psy-rdoq=1.00 / no-rd-refine / no-lossless / cbqpoffs=-2 / crqpoffs=-2 / rc=crf / crf=21.0 / qcomp=0.65 / qpstep=4 / stats-write=0 / stats-read=0 / vbv-maxrate=160000 / vbv-bufsize=160000 / vbv-init=0.9 / min-vbv-fullness=50.0 / max-vbv-fullness=80.0 / crf-max=0.0 / crf-min=0.0 / ipratio=1.30 / pbratio=1.20 / aq-mode=1 / aq-strength=1.00 / no-cutree / zone-count=0 / no-strict-cbr / qg-size=8 / no-rc-grain / qpmax=69 / qpmin=0 / no-const-vbv / sar=0 / overscan=0 / videoformat=5 / range=0 / colorprim=1 / transfer=1 / colormatrix=1 / chromaloc=0 / display-window=0 / cll=0,0 / min-luma=0 / max-luma=1023 / log2-max-poc-lsb=8 / vui-timing-info / vui-hrd-info / slices=1 / no-opt-qp-pps / no-opt-ref-list-length-pps / no-multi-pass-opt-rps / scenecut-bias=0.05 / hist-threshold=0.03 / no-opt-cu-delta-qp / no-aq-motion / no-hdr10 / no-hdr10-opt / no-dhdr10-opt / no-idr-recovery-sei / analysis-reuse-level=0 / analysis-save-reuse-level=0 / analysis-load-reuse-level=0 / scale-factor=0 / refine-intra=0 / refine-inter=0 / refine-mv=1 / refine-ctu-distortion=0 / no-limit-sao / ctu-info=0 / no-lowpass-dct / refine-analysis-type=0 / copy-pic=1 / max-ausize-factor=1.0 / no-dynamic-refine / no-single-sei / no-hevc-aq / no-svt / no-field / qp-adaptation-range=1.00 / scenecut-aware-qp=0conformance-window-offsets / right=0 / bottom=0 / NTM4NzU= / decoder-max-rate=0 / no-vbv-live-multi-pass
  34. Default                                  : Yes
  35. Forced                                   : No
  36. Color range                              : Limited
  37. Color primaries                          : BT.709
  38. Transfer characteristics                 : BT.709
  39. Matrix coefficients                      : BT.709
  40. Audio
  41. ID                                       : 2
  42. Format                                   : AC-3
  43. Format/Info                              : Audio Coding 3
  44. Commercial name                          : Dolby Digital
  45. Codec ID                                 : A_AC3
  46. Duration                                 : 1 h 47 min
  47. Bit rate mode                            : Constant
  48. Bit rate                                 : 640 kb/s
  49. Channel(s)                               : 6 channels
  50. Channel layout                           : L R C LFE Ls Rs
  51. Sampling rate                            : 48.0 kHz
  52. Frame rate                               : 31.250 FPS (1536 SPF)
  53. Compression mode                         : Lossy
  54. Stream size                              : 494 MiB (5%)
  55. Language                                 : English
  56. Service kind                             : Complete Main
  57. Default                                  : Yes
  58. Forced                                   : No
  59. Text #1
  60. ID                                       : 3
  61. Format                                   : UTF-8
  62. Codec ID                                 : S_TEXT/UTF8
  63. Codec ID/Info                            : UTF-8 Plain Text
  64. Duration                                 : 1 h 46 min
  65. Bit rate                                 : 37 b/s
  66. Count of elements                        : 772
  67. Stream size                              : 29.5 KiB (0%)
  68. Language                                 : Chinese
  69. Default                                  : Yes
  70. Forced                                   : No
  71. Text #2
  72. ID                                       : 4
  73. ID in the original source medium         : 4608 (0x1200)
  74. Format                                   : PGS
  75. Muxing mode                              : zlib
  76. Codec ID                                 : S_HDMV/PGS
  77. Codec ID/Info                            : Picture based subtitle format used on BDs/HD-DVDs
  78. Duration                                 : 1 h 39 min
  79. Bit rate                                 : 19.5 kb/s
  80. Count of elements                        : 1938
  81. Stream size                              : 13.8 MiB (0%)
  82. Language                                 : Russian
  83. Default                                  : No
  84. Forced                                   : No
  85. Original source medium                   : Blu-ray
  86. Text #3
  87. ID                                       : 5
  88. ID in the original source medium         : 4609 (0x1201)
  89. Format                                   : PGS
  90. Muxing mode                              : zlib
  91. Codec ID                                 : S_HDMV/PGS
  92. Codec ID/Info                            : Picture based subtitle format used on BDs/HD-DVDs
  93. Duration                                 : 1 h 37 min
  94. Bit rate                                 : 48.8 kb/s
  95. Count of elements                        : 2104
  96. Stream size                              : 34.0 MiB (0%)
  97. Language                                 : English
  98. Default                                  : No
  99. Forced                                   : No
  100. Original source medium                   : Blu-ray
  101. Menu
  102. 00:00:00.000                             : Chapter 01
  103. 00:05:52.977                             : Chapter 02
  104. 00:08:16.412                             : Chapter 03
  105. 00:15:10.075                             : Chapter 04
  106. 00:18:20.641                             : Chapter 05
  107. 00:23:05.008                             : Chapter 06
  108. 00:27:57.467                             : Chapter 07
  109. 00:34:01.998                             : Chapter 08
  110. 00:40:16.831                             : Chapter 09
  111. 00:43:20.347                             : Chapter 10
  112. 00:47:46.363                             : Chapter 11
  113. 00:54:02.989                             : Chapter 12
  114. 00:59:05.250                             : Chapter 13
  115. 01:02:57.398                             : Chapter 14
  116. 01:06:25.189                             : Chapter 15
  117. 01:14:53.780                             : Chapter 16
  118. 01:18:56.231                             : Chapter 17
  119. 01:26:13.960                             : Chapter 18
  120. 01:32:14.862                             : Chapter 19
  121. 01:37:38.519                             : Chapter 20
复制代码

















保举请利用qBittorrent,utorrent,transmission等标准BT软件下载!以获得最快速度。奉求保种!





回复

使用道具 举报

蓝光币
576
发表于 2022-7-28 18:35:02 | 显示全部楼层
谢谢分享!!!!!
回复

使用道具 举报

懒得打字嘛,点击右侧快捷回复 【右侧内容,后台自定义】
您需要登录后才可以回帖 登录 | 立即加入

本版积分规则

Archiver|小黑屋| 蓝光电影网 |网站地图

Copyright © 2021 Comsenz Inc. Powered by 蓝光电影网

蓝光电影网

本站内容由用户自主分享和转载自互联网,转载目的在于传递更多信息,并不代表本网赞同其观点和对其真实性负责。

如有侵权、违反国家法律政策行为,请联系我们,我们会第一时间及时清除和处理!

举报反馈邮箱:[email protected]

快速回复 返回顶部 返回列表