找回密码

蓝光电影网

查看: 77|回复: 0

[剧情] 独眼巨人[中英字幕].Cyclops.2008.1080p.BluRay.x265.10bit-MiniHD 9.93GB

[复制链接]
蓝光币
8
发表于 2022-7-28 01:51:11 | 显示全部楼层 |阅读模式


◎标  题 独眼伟人
◎片  名 Cyclops
◎年  代 2008
◎产  地 美国
◎语  言 英语
◎上映日期 2008-12-06
◎IMDb评分 2.9/10 (1470人评价)
◎IMDb链接 https://www.imdb.com/title/tt1210344/
◎豆瓣评分 3.6/10 (297人评价)
◎豆瓣链接 https://movie.douban.com/subject/3638258/
◎演  员 弗里达法瑞尔 Frida Farrell
       哈里·阿尼奇金 Harry Anichkin
        John Laskowski
        Alex Revan
       埃里克·罗伯茨 Eric Roberts
       Kevin Stapleton Kevin Stapleton
       莱乔·瓦斯列夫 Raicho Vasilev
       Stanimir Stamatov Stanimir Stamatov
       沃利扎·比尼夫 Velizar Binev
       Nick Harvey Nick Harvey
       德莫尔热·布朗 DeMorge Brown
◎标  签 独眼伟人 / 美国电影 / 美国 / 科幻 / 魔幻 / 奇异 / 不想看没看下去 / 2008
◎简  介
    It is the pinnacle of the Roman Empire, a time of mighty gladiators, lusty women, and a ferocious one - eyed monster that slaughters those foolish enough to enter his forest domain. But the corrupt Emperor Tiberius has a plan to please the bloodlust of the people: Capture the creature and unleash him in the arena against his condemned slaves, including wrongfully imporisoned general Marcus Romulus. Now the ultimate battle between man and beast is about to begin... and Rome will tase the full furty of hell unleashed.
  1. ##### MediaInfo ######
  2. General
  3. Unique ID                                : 287522197683960765734043472047622672617 (0xD84EC2D22D7B6199235F392F010D50E9)
  4. Complete name                            : Cyclops.2008.1080p.BluRay.x265.10bit-MiniHD.mkv
  5. Format                                   : Matroska
  6. Format version                           : Version 4
  7. File size                                : 9.93 GiB
  8. Duration                                 : 1 h 33 min
  9. Overall bit rate                         : 15.1 Mb/s
  10. Movie name                               : Cyclops.2008.1080p.BluRay.x265.10bit.MNHD-FRDS
  11. Encoded date                             : UTC 2021-05-14 15:29:16
  12. Writing application                      : mkvmerge v56.1.0 ('My Friend') 64-bit
  13. Writing library                          : libebml v1.4.2 + libmatroska v1.6.4
  14. Video
  15. ID                                       : 1
  16. Format                                   : HEVC
  17. Format/Info                              : High Efficiency Video Coding
  18. Format profile                           : Main [email protected]@High
  19. Codec ID                                 : V_MPEGH/ISO/HEVC
  20. Duration                                 : 1 h 33 min
  21. Bit rate                                 : 14.5 Mb/s
  22. Width                                    : 1 920 pixels
  23. Height                                   : 1 080 pixels
  24. Display aspect ratio                     : 16:9
  25. Frame rate mode                          : Constant
  26. Frame rate                               : 23.976 (24000/1001/53875) FPS
  27. Color space                              : YUV
  28. Chroma subsampling                       : 4:2:0
  29. Bit depth                                : 10 bits
  30. Bits/(Pixel*Frame)                       : 0.292
  31. Stream size                              : 9.51 GiB (96%)
  32. Writing library                          : x265 3.5+9-bf91444e0:[Windows][MSVC 1928][64 bit] 10bit
  33. Encoding settings                        : cpuid=538751111039 / frame-threads=4 / numa-pools=16 / wpp / pmode / no-pme / no-psnr / no-ssim / log-level=2 / input-csp=1 / input-res=1920x1080 / interlace=0 / total-frames=135048 / level-idc=0 / high-tier=1 / uhd-bd=0 / ref=6 / no-allow-non-conformance / no-repeat-headers / annexb / no-aud / no-eob / no-eos / no-hrd / info / hash=0 / no-temporal-layers / no-open-gop / min-keyint=1 / keyint=250 / gop-lookahead=0 / bframes=8 / b-adapt=2 / b-pyramid / bframe-bias=0 / rc-lookahead=100 / lookahead-slices=0 / NTM4NzU=uuDQuD2mJt9fsCf / scenecut=40 / hist-scenecut=0 / radl=0 / no-splice / no-intra-refresh / ctu=32 / min-cu-size=8 / no-rect / no-amp / max-tu-size=32 / tu-inter-depth=4 / tu-intra-depth=4 / limit-tu=0 / rdoq-level=2 / dynamic-rd=0.00 / no-ssim-rd / signhide / tskip / nr-intra=0 / nr-inter=0 / no-constrained-intra / strong-intra-smoothing / max-merge=5 / limit-refs=0 / no-limit-modes / me=3 / subme=7 / merange=57 / temporal-mvp / no-frame-dup / no-hme / weightp / weightb / no-analyze-src-pics / deblock=-3:-3 / no-sao / no-sao-non-deblock / rd=4 / selective-sao=0 / no-early-skip / no-rskip / no-fast-intra / no-tskip-fast / no-cu-lossless / b-intra / no-splitrd-skip / rdpenalty=0 / psy-rd=1.50 / psy-rdoq=1.00 / no-rd-refine / no-lossless / cbqpoffs=-2 / crqpoffs=-2 / rc=crf / crf=21.0 / qcomp=0.65 / qpstep=4 / stats-write=0 / stats-read=0 / vbv-maxrate=160000 / vbv-bufsize=160000 / vbv-init=0.9 / min-vbv-fullness=50.0 / max-vbv-fullness=80.0 / crf-max=0.0 / crf-min=0.0 / ipratio=1.30 / pbratio=1.20 / aq-mode=1 / aq-strength=1.00 / no-cutree / zone-count=0 / no-strict-cbr / qg-size=8 / no-rc-grain / qpmax=69 / qpmin=0 / no-const-vbv / sar=0 / overscan=0 / videoformat=5 / range=0 / colorprim=1 / transfer=1 / colormatrix=1 / chromaloc=0 / display-window=0 / cll=0,0 / min-luma=0 / max-luma=1023 / log2-max-poc-lsb=8 / vui-timing-info / vui-hrd-info / slices=1 / no-opt-qp-pps / no-opt-ref-list-length-pps / no-multi-pass-opt-rps / scenecut-bias=0.05 / hist-threshold=0.03 / no-opt-cu-delta-qp / no-aq-motion / no-hdr10 / no-hdr10-opt / no-dhdr10-opt / no-idr-recovery-sei / analysis-reuse-level=0 / analysis-save-reuse-level=0 / analysis-load-reuse-level=0 / scale-factor=0 / refine-intra=0 / refine-inter=0 / refine-mv=1 / refine-ctu-distortion=0 / no-limit-sao / ctu-info=0 / no-lowpass-dct / refine-analysis-type=0 / copy-pic=1 / max-ausize-factor=1.0 / no-dynamic-refine / no-single-sei / no-hevc-aq / no-svt / no-field / qp-adaptation-range=1.00 / scenecut-aware-qp=0conformance-window-offsets / right=0 / bottom=0 / NTM4NzU= / decoder-max-rate=0 / no-vbv-live-multi-pass
  34. Default                                  : Yes
  35. Forced                                   : No
  36. Color range                              : Limited
  37. Color primaries                          : BT.709
  38. Transfer characteristics                 : BT.709
  39. Matrix coefficients                      : BT.709
  40. Audio
  41. ID                                       : 2
  42. Format                                   : AC-3
  43. Format/Info                              : Audio Coding 3
  44. Commercial name                          : Dolby Digital
  45. Codec ID                                 : A_AC3
  46. Duration                                 : 1 h 33 min
  47. Bit rate mode                            : Constant
  48. Bit rate                                 : 640 kb/s
  49. Channel(s)                               : 6 channels
  50. Channel layout                           : L R C LFE Ls Rs
  51. Sampling rate                            : 48.0 kHz
  52. Frame rate                               : 31.250 FPS (1536 SPF)
  53. Compression mode                         : Lossy
  54. Stream size                              : 430 MiB (4%)
  55. Language                                 : English
  56. Service kind                             : Complete Main
  57. Default                                  : Yes
  58. Forced                                   : No
  59. Text #1
  60. ID                                       : 3
  61. Format                                   : UTF-8
  62. Codec ID                                 : S_TEXT/UTF8
  63. Codec ID/Info                            : UTF-8 Plain Text
  64. Duration                                 : 1 h 30 min
  65. Bit rate                                 : 37 b/s
  66. Count of elements                        : 829
  67. Stream size                              : 24.7 KiB (0%)
  68. Language                                 : Chinese
  69. Default                                  : Yes
  70. Forced                                   : No
  71. Text #2
  72. ID                                       : 4
  73. Format                                   : UTF-8
  74. Codec ID                                 : S_TEXT/UTF8
  75. Codec ID/Info                            : UTF-8 Plain Text
  76. Duration                                 : 1 h 30 min
  77. Bit rate                                 : 38 b/s
  78. Count of elements                        : 826
  79. Stream size                              : 25.4 KiB (0%)
  80. Language                                 : English
  81. Default                                  : No
  82. Forced                                   : No
  83. Text #3
  84. ID                                       : 5
  85. ID in the original source medium         : 4608 (0x1200)
  86. Format                                   : PGS
  87. Muxing mode                              : zlib
  88. Codec ID                                 : S_HDMV/PGS
  89. Codec ID/Info                            : Picture based subtitle format used on BDs/HD-DVDs
  90. Duration                                 : 1 h 30 min
  91. Bit rate                                 : 23.4 kb/s
  92. Count of elements                        : 1442
  93. Stream size                              : 15.1 MiB (0%)
  94. Language                                 : German
  95. Default                                  : No
  96. Forced                                   : No
  97. Original source medium                   : Blu-ray
  98. Menu
  99. 00:00:00.000                             : Chapter 01
  100. 00:08:00.771                             : Chapter 02
  101. 00:17:43.228                             : Chapter 03
  102. 00:25:37.869                             : Chapter 04
  103. 00:31:13.246                             : Chapter 05
  104. 00:39:07.345                             : Chapter 06
  105. 00:46:53.268                             : Chapter 07
  106. 00:52:37.362                             : Chapter 08
  107. 01:01:33.022                             : Chapter 09
  108. 01:09:49.852                             : Chapter 10
  109. 01:17:48.246                             : Chapter 11
  110. 01:23:54.654                             : Chapter 12
复制代码

















保举请利用qBittorrent,utorrent,transmission等标准BT软件下载!以获得最快速度。奉求保种!





回复

使用道具 举报

懒得打字嘛,点击右侧快捷回复 【右侧内容,后台自定义】
您需要登录后才可以回帖 登录 | 立即加入

本版积分规则

Archiver|小黑屋| 蓝光电影网 |网站地图

Copyright © 2021 Comsenz Inc. Powered by 蓝光电影网

蓝光电影网

本站内容由用户自主分享和转载自互联网,转载目的在于传递更多信息,并不代表本网赞同其观点和对其真实性负责。

如有侵权、违反国家法律政策行为,请联系我们,我们会第一时间及时清除和处理!

举报反馈邮箱:[email protected]

快速回复 返回顶部 返回列表