找回密码

蓝光电影网

查看: 95|回复: 2

[剧情] 自己去看[简繁英字幕].Come.And.See.1985.CC.Bluray.1080p.x265.10bit.FLAC-MiniHD 9.06GB

[复制链接]
蓝光币
8
发表于 2022-7-28 01:51:21 | 显示全部楼层 |阅读模式


◎标  题 自己去看
◎译  名 见证(台) / 炎628 / 过来瞧瞧 / 屠杀安魂曲 / 炙628 / Come And See / Idi i smotri
◎片  名 Иди и смотри
◎年  代 1985
◎产  地 苏联
◎类  别 剧情 / 战争
◎语  言 白俄罗斯语 / 俄语 / 德语
◎上映日期 1985-10-17(匈牙利)
◎IMDb评分 8.3/10 (69750人评价)
◎IMDb链接 https://www.imdb.com/title/tt0091251/
◎豆瓣评分 8.7/10 (8619人评价)
◎豆瓣链接 https://movie.douban.com/subject/1422186/
◎片  长 143分钟
◎导  演 依莱姆·克里莫夫 Elem Klimov
◎编  剧 依莱姆·克里莫夫 Elem Klimov
       安列斯·阿达莫维奇 Ales Adamovich
◎演  员 阿列克谢·克拉夫琴科 Aleksey Kravchenko
       奥尔加·米罗诺娃 Olga Mironova
       柳博米拉斯·劳恰维丘斯 Liubomiras Lauciavicius
       佛拉德斯·巴格多纳斯 Vladas Bagdonas
       维克托·洛伦茨 Viktor Lorents
       亚历山大·别尔达 Aleksandr Berda
       彼得·梅尔库里耶夫 Pyotr Merkuryev
       阿纳托利·斯利夫尼科夫 Anatoli Slivnikov
◎标  签 战争 / 二战 / 苏联 / 苏联电影 / 人性 / 俄罗斯 / 历史 / 1985
◎简  介
    这是一部很特别的战争题材电影,它实在地描写了德占区群众的悲凉遭受和排场,以及人们面临突如其来的灾难的恐惧,反应了战争的实在脸孔。它既分歧于《斯大林格勒保卫战》、《攻占柏林》这些正面疆场的伤亡枕藉、排山倒海、势如破竹,也分歧与《这里的拂晓静静静》、《星》所描写的部分战役中表现的普通悲壮,更不是战地浪漫曲,而是来临在平民百姓头上血淋淋的残暴。影片的事务和可骇排场远跨越任何一部描写德军集合营的电影,使人毛骨悚然,提醒怯懦和心软者慎看。
  1. ##### MediaInfo ######
  2. General
  3. Unique ID                                : 336823992675532841002497722706256670516 (0xFD65F0FC31DFC329D0AFECE2057B2F34)
  4. Complete name                            : Come.And.See.1985.CC.Bluray.1080p.x265.10bit.FLAC-MiniHD.mkv
  5. Format                                   : Matroska
  6. Format version                           : Version 4
  7. File size                                : 9.06 GiB
  8. Duration                                 : 2 h 23 min
  9. Overall bit rate mode                    : Variable
  10. Overall bit rate                         : 9 049 kb/s
  11. Movie name                               : COME AND SEE
  12. Encoded date                             : UTC 2021-03-04 02:39:30
  13. Writing application                      : mkvmerge v53.0.0 ('Fool's Gold') 64-bit
  14. Writing library                          : libebml v1.4.1 + libmatroska v1.6.2
  15. Cover                                    : Yes
  16. Attachments                              : cover.jpg
  17. Video
  18. ID                                       : 1
  19. Format                                   : HEVC
  20. Format/Info                              : High Efficiency Video Coding
  21. Format profile                           : Main [email protected]@High
  22. Codec ID                                 : V_MPEGH/ISO/HEVC
  23. Duration                                 : 2 h 23 min
  24. Bit rate                                 : 7 917 kb/s
  25. Width                                    : 1 480 pixels
  26. Height                                   : 1 080 pixels
  27. Display aspect ratio                     : 1.370
  28. Frame rate mode                          : Constant
  29. Frame rate                               : 23.976 (24000/1001/53875) FPS
  30. Color space                              : YUV
  31. Chroma subsampling                       : 4:2:0
  32. Bit depth                                : 10 bits
  33. Bits/(Pixel*Frame)                       : 0.207
  34. Stream size                              : 7.93 GiB (87%)
  35. Writing library                          : x265 3.4+33-606265ac7:[Windows][MSVC 1928][64 bit] 10bit
  36. Encoding settings                        : cpuid=538751111039 / frame-threads=3 / numa-pools=8 / wpp / pmode / no-pme / no-psnr / no-ssim / log-level=2 / input-csp=1 / input-res=1480x1080 / interlace=0 / total-frames=206163 / level-idc=0 / high-tier=1 / uhd-bd=0 / ref=4 / no-allow-non-conformance / no-repeat-headers / annexb / no-aud / no-hrd / info / hash=0 / no-temporal-layers / no-open-gop / min-keyint=1 / keyint=250 / gop-lookahead=0 / bframes=6 / b-adapt=2 / b-pyramid / bframe-bias=0 / rc-lookahead=80 / lookahead-slices=0 / NTM4NzU=uuDQuD2mJt9fsCf / scenecut=40 / hist-scenecut=0 / radl=0 / no-splice / no-intra-refresh / ctu=32 / min-cu-size=8 / no-rect / no-amp / max-tu-size=32 / tu-inter-depth=4 / tu-intra-depth=4 / limit-tu=0 / rdoq-level=2 / dynamic-rd=0.00 / no-ssim-rd / signhide / tskip / nr-intra=0 / nr-inter=0 / no-constrained-intra / strong-intra-smoothing / max-merge=5 / limit-refs=0 / no-limit-modes / me=3 / subme=7 / merange=44 / temporal-mvp / no-frame-dup / no-hme / weightp / weightb / no-analyze-src-pics / deblock=-3:-3 / no-sao / no-sao-non-deblock / rd=4 / selective-sao=0 / no-early-skip / no-rskip / no-fast-intra / no-tskip-fast / no-cu-lossless / b-intra / no-splitrd-skip / rdpenalty=0 / psy-rd=1.50 / psy-rdoq=1.00 / no-rd-refine / no-lossless / cbqpoffs=-2 / crqpoffs=-2 / rc=crf / crf=22.5 / qcomp=0.65 / qpstep=4 / stats-write=0 / stats-read=0 / vbv-maxrate=160000 / vbv-bufsize=160000 / vbv-init=0.9 / min-vbv-fullness=50.0 / max-vbv-fullness=80.0 / crf-max=0.0 / crf-min=0.0 / ipratio=1.30 / pbratio=1.20 / aq-mode=1 / aq-strength=1.00 / no-cutree / zone-count=0 / no-strict-cbr / qg-size=8 / no-rc-grain / qpmax=69 / qpmin=0 / no-const-vbv / sar=0 / overscan=0 / videoformat=5 / range=0 / colorprim=1 / transfer=1 / colormatrix=1 / chromaloc=0 / display-window=0 / cll=0,0 / min-luma=0 / max-luma=1023 / log2-max-poc-lsb=8 / vui-timing-info / vui-hrd-info / slices=1 / no-opt-qp-pps / no-opt-ref-list-length-pps / no-multi-pass-opt-rps / scenecut-bias=0.05 / hist-threshold=0.03 / no-opt-cu-delta-qp / no-aq-motion / no-hdr10 / no-hdr10-opt / no-dhdr10-opt / no-idr-recovery-sei / analysis-reuse-level=0 / analysis-save-reuse-level=0 / analysis-load-reuse-level=0 / scale-factor=0 / refine-intra=0 / refine-inter=0 / refine-mv=1 / refine-ctu-distortion=0 / no-limit-sao / ctu-info=0 / no-lowpass-dct / refine-analysis-type=0 / copy-pic=1 / max-ausize-factor=1.0 / no-dynamic-refine / no-single-sei / no-hevc-aq / no-svt / no-field / qp-adaptation-range=1.00 / scenecut-aware-qp=0conformance-window-offsets / right=0 / bottom=0 / NTM4NzU= / decoder-max-rate=0 / no-vbv-live-multi-pass
  37. Default                                  : Yes
  38. Forced                                   : No
  39. Color range                              : Limited
  40. Color primaries                          : BT.709
  41. Transfer characteristics                 : BT.709
  42. Matrix coefficients                      : BT.709
  43. Audio #1
  44. ID                                       : 2
  45. Format                                   : FLAC
  46. Format/Info                              : Free Lossless Audio Codec
  47. Codec ID                                 : A_FLAC
  48. Duration                                 : 2 h 23 min
  49. Bit rate mode                            : Variable
  50. Bit rate                                 : 315 kb/s
  51. Channel(s)                               : 1 channel
  52. Channel layout                           : C
  53. Sampling rate                            : 48.0 kHz
  54. Frame rate                               : 11.719 FPS (4096 SPF)
  55. Bit depth                                : 16 bits
  56. Compression mode                         : Lossless
  57. Stream size                              : 323 MiB (3%)
  58. Writing library                          : libFLAC 1.3.3 (UTC 2019-08-04)
  59. Language                                 : Russian
  60. Default                                  : Yes
  61. Forced                                   : No
  62. Audio #2
  63. ID                                       : 3
  64. Format                                   : AC-3
  65. Format/Info                              : Audio Coding 3
  66. Commercial name                          : Dolby Digital
  67. Codec ID                                 : A_AC3
  68. Duration                                 : 2 h 23 min
  69. Bit rate mode                            : Constant
  70. Bit rate                                 : 384 kb/s
  71. Channel(s)                               : 6 channels
  72. Channel layout                           : L R C LFE Ls Rs
  73. Sampling rate                            : 48.0 kHz
  74. Frame rate                               : 31.250 FPS (1536 SPF)
  75. Compression mode                         : Lossy
  76. Stream size                              : 394 MiB (4%)
  77. Language                                 : Russian
  78. Service kind                             : Complete Main
  79. Default                                  : No
  80. Forced                                   : No
  81. Audio #3
  82. ID                                       : 4
  83. Format                                   : AC-3
  84. Format/Info                              : Audio Coding 3
  85. Commercial name                          : Dolby Digital
  86. Codec ID                                 : A_AC3
  87. Duration                                 : 2 h 23 min
  88. Bit rate mode                            : Constant
  89. Bit rate                                 : 384 kb/s
  90. Channel(s)                               : 6 channels
  91. Channel layout                           : L R C LFE Ls Rs
  92. Sampling rate                            : 48.0 kHz
  93. Frame rate                               : 31.250 FPS (1536 SPF)
  94. Compression mode                         : Lossy
  95. Stream size                              : 394 MiB (4%)
  96. Language                                 : English
  97. Service kind                             : Complete Main
  98. Default                                  : No
  99. Forced                                   : No
  100. Text #1
  101. ID                                       : 5
  102. ID in the original source medium         : 4611 (0x1203)
  103. Format                                   : PGS
  104. Muxing mode                              : zlib
  105. Codec ID                                 : S_HDMV/PGS
  106. Codec ID/Info                            : Picture based subtitle format used on BDs/HD-DVDs
  107. Duration                                 : 2 h 22 min
  108. Bit rate                                 : 8 672 b/s
  109. Count of elements                        : 1248
  110. Stream size                              : 8.85 MiB (0%)
  111. Title                                    : CHS
  112. Language                                 : Chinese
  113. Default                                  : Yes
  114. Forced                                   : No
  115. Original source medium                   : Blu-ray
  116. Text #2
  117. ID                                       : 6
  118. ID in the original source medium         : 4612 (0x1204)
  119. Format                                   : PGS
  120. Muxing mode                              : zlib
  121. Codec ID                                 : S_HDMV/PGS
  122. Codec ID/Info                            : Picture based subtitle format used on BDs/HD-DVDs
  123. Duration                                 : 2 h 22 min
  124. Bit rate                                 : 8 981 b/s
  125. Count of elements                        : 1248
  126. Stream size                              : 9.16 MiB (0%)
  127. Title                                    : CHT
  128. Language                                 : Chinese
  129. Default                                  : No
  130. Forced                                   : No
  131. Original source medium                   : Blu-ray
  132. Text #3
  133. ID                                       : 7
  134. ID in the original source medium         : 4614 (0x1206)
  135. Format                                   : PGS
  136. Muxing mode                              : zlib
  137. Codec ID                                 : S_HDMV/PGS
  138. Codec ID/Info                            : Picture based subtitle format used on BDs/HD-DVDs
  139. Duration                                 : 2 h 22 min
  140. Bit rate                                 : 8 717 b/s
  141. Count of elements                        : 1292
  142. Stream size                              : 8.88 MiB (0%)
  143. Title                                    : CHS(CMCT)
  144. Language                                 : Chinese
  145. Default                                  : No
  146. Forced                                   : No
  147. Original source medium                   : Blu-ray
  148. Text #4
  149. ID                                       : 8
  150. ID in the original source medium         : 4615 (0x1207)
  151. Format                                   : PGS
  152. Muxing mode                              : zlib
  153. Codec ID                                 : S_HDMV/PGS
  154. Codec ID/Info                            : Picture based subtitle format used on BDs/HD-DVDs
  155. Duration                                 : 2 h 22 min
  156. Bit rate                                 : 9 183 b/s
  157. Count of elements                        : 1292
  158. Stream size                              : 9.35 MiB (0%)
  159. Title                                    : CHT(CMCT)
  160. Language                                 : Chinese
  161. Default                                  : No
  162. Forced                                   : No
  163. Original source medium                   : Blu-ray
  164. Text #5
  165. ID                                       : 9
  166. ID in the original source medium         : 4608 (0x1200)
  167. Format                                   : PGS
  168. Muxing mode                              : zlib
  169. Codec ID                                 : S_HDMV/PGS
  170. Codec ID/Info                            : Picture based subtitle format used on BDs/HD-DVDs
  171. Duration                                 : 2 h 22 min
  172. Bit rate                                 : 16.2 kb/s
  173. Count of elements                        : 1468
  174. Stream size                              : 16.5 MiB (0%)
  175. Language                                 : English
  176. Default                                  : No
  177. Forced                                   : No
  178. Original source medium                   : Blu-ray
  179. Text #6
  180. ID                                       : 10
  181. ID in the original source medium         : 4609 (0x1201)
  182. Format                                   : PGS
  183. Muxing mode                              : zlib
  184. Codec ID                                 : S_HDMV/PGS
  185. Codec ID/Info                            : Picture based subtitle format used on BDs/HD-DVDs
  186. Duration                                 : 2 h 22 min
  187. Bit rate                                 : 17.0 kb/s
  188. Count of elements                        : 1242
  189. Stream size                              : 17.3 MiB (0%)
  190. Language                                 : French
  191. Default                                  : No
  192. Forced                                   : No
  193. Original source medium                   : Blu-ray
  194. Text #7
  195. ID                                       : 11
  196. ID in the original source medium         : 4610 (0x1202)
  197. Format                                   : PGS
  198. Muxing mode                              : zlib
  199. Codec ID                                 : S_HDMV/PGS
  200. Codec ID/Info                            : Picture based subtitle format used on BDs/HD-DVDs
  201. Duration                                 : 2 h 22 min
  202. Bit rate                                 : 16.0 kb/s
  203. Count of elements                        : 1242
  204. Stream size                              : 16.3 MiB (0%)
  205. Language                                 : Spanish
  206. Default                                  : No
  207. Forced                                   : No
  208. Original source medium                   : Blu-ray
  209. Text #8
  210. ID                                       : 12
  211. ID in the original source medium         : 4613 (0x1205)
  212. Format                                   : PGS
  213. Muxing mode                              : zlib
  214. Codec ID                                 : S_HDMV/PGS
  215. Codec ID/Info                            : Picture based subtitle format used on BDs/HD-DVDs
  216. Duration                                 : 2 h 20 min
  217. Bit rate                                 : 24.3 kb/s
  218. Count of elements                        : 2101
  219. Stream size                              : 24.5 MiB (0%)
  220. Language                                 : Japanese
  221. Default                                  : No
  222. Forced                                   : No
  223. Original source medium                   : Blu-ray
  224. Menu
  225. 00:00:00.000                             : en:Chapter 01
  226. 00:08:37.892                             : en:Chapter 02
  227. 00:16:05.798                             : en:Chapter 03
  228. 00:20:34.274                             : en:Chapter 04
  229. 00:28:03.682                             : en:Chapter 05
  230. 00:40:24.630                             : en:Chapter 06
  231. 00:45:56.420                             : en:Chapter 07
  232. 00:58:05.356                             : en:Chapter 08
  233. 01:07:03.561                             : en:Chapter 09
  234. 01:16:02.099                             : en:Chapter 10
  235. 01:25:26.162                             : en:Chapter 11
  236. 01:34:27.703                             : en:Chapter 12
  237. 01:42:01.698                             : en:Chapter 13
  238. 02:01:42.962                             : en:Chapter 14
  239. 02:14:40.655                             : en:Chapter 15
复制代码



保举请利用qBittorrent,utorrent,transmission等标准BT软件下载!以获得最快速度。奉求保种!





回复

使用道具 举报

蓝光币
1
发表于 2022-8-28 18:49:36 | 显示全部楼层
本操作后您的蓝光币将不足
回复 支持 反对

使用道具 举报

蓝光币
16
发表于 2022-10-12 22:04:00 | 显示全部楼层
楼主发贴辛苦了,谢谢楼主分享!我觉得蓝光电影网是注册对了!
回复 支持 反对

使用道具 举报

懒得打字嘛,点击右侧快捷回复 【右侧内容,后台自定义】
您需要登录后才可以回帖 登录 | 立即加入

本版积分规则

Archiver|小黑屋| 蓝光电影网 |网站地图

Copyright © 2021 Comsenz Inc. Powered by 蓝光电影网

蓝光电影网

本站内容由用户自主分享和转载自互联网,转载目的在于传递更多信息,并不代表本网赞同其观点和对其真实性负责。

如有侵权、违反国家法律政策行为,请联系我们,我们会第一时间及时清除和处理!

举报反馈邮箱:[email protected]

快速回复 返回顶部 返回列表