找回密码

蓝光电影网

查看: 64|回复: 0

[剧情] 云图[简繁英字幕].Cloud.Atlas.2012.Bluray.1080p.x265.10bit.DDP.5.1-MiniHD 18.11GB

[复制链接]
蓝光币
8
发表于 2022-7-28 01:51:26 | 显示全部楼层 |阅读模式


◎标  题 云图
◎片  名 Cloud Atlas
◎年  代 2012
◎产  地 德国 / 美国 / 中国香港 / 中国大陆 / 新加坡
◎类  别 剧情 / 科幻 / 悬疑
◎语  言 英语 / 西班牙语
◎上映日期 2013-01-31(中国大陆) / 2012-10-26(美国)
◎IMDb评分 7.4/10 (354625人评价)
◎IMDb链接 https://www.imdb.com/title/tt1371111/
◎豆瓣评分 8.1/10 (372690人评价)
◎豆瓣链接 https://movie.douban.com/subject/3530403/
◎片  长 134分钟(中国大陆)
◎导  演 汤姆·提克威 Tom Tykwer
       拉娜·沃卓斯基 Lana Wachowski
       莉莉·沃卓斯基 Lilly Wachowski
◎编  剧 汤姆·提克威 Tom Tykwer
       莉莉·沃卓斯基 Lilly Wachowski
       拉娜·沃卓斯基 Lana Wachowski
       大卫·米切尔 David Mitchell
◎演  员 汤姆·汉克斯 Tom Hanks
       哈莉·贝瑞 Halle Berry
       吉姆·布劳德本特 Jim Broadbent
       雨果·维文 Hugo Weaving
       吉姆·斯特吉斯 Jim Sturgess
       裴斗娜 Doona Bae
       本·卫肖 Ben Whishaw
       詹姆斯·达西 James D'Arcy
       周迅 Xun Zhou
       凯斯·大卫 Keith David
       大卫·吉亚西 David Gyasi
       苏珊·萨兰登 Susan Sarandon
       休·格兰特 Hugh Grant
       肖恩·劳顿 Shaun Lawton
       马丁·乌特克 Martin Wuttke
       布罗迪·尼古拉斯·李 Brody Nicholas Lee
       大卫·米切尔 David Mitchell
       朱珠 Zhu Zhu
       罗伯特·法伊夫 Robert Fyfe
       拉娜·沃卓斯基 Lana Wachowski
       裘华顺 Huashun Qiu
       休·格兰特 Hugh Grant
       李少伟 Philip Lee
       汤姆·提克威 Tom Tykwer
       莉莉·沃卓斯基 Lilly Wachowski
       汤姆·提克威 Tom Tykwer
       约翰·托尔 John Toll
       Rebecca Alleway Rebecca Alleway
       彼得·瓦尔波尔 Peter Walpole
       Pierre-Yves Gayraud Pierre-Yves Gayraud
       凯姆·巴雷特 Kym Barrett
       斯特凡·切雷蒂 Stephane Ceretti
       Lars Ginzel Lars Ginzel
       Markus Stemler Markus Stemler
◎标  签 科幻 / 美国 / 人性 / 剧情 / 奇异 / 史诗 / 小说改编 / 2012
◎简  介
  《Cloud Atlas》是大卫.米切尔的第三部小说。这本书由六段故事组成,从1840年一位美国人从悉尼观光到旧金山的日志、二十世纪三十年月初居住在比利时的年轻作曲家、1975年卷入加利福尼亚灾难的年轻记者、现今伦敦出书回忆录的黑道、1984年韩国发生的故事与一个老人叙 述那时在夏威夷的青春自语为终结。 《Cloud Atlas》入围2004年布克奖(Man Booker Prize)
  1. ##### MediaInfo ######
  2. General
  3. Unique ID                                : 100600273397372781769467337983443767885 (0x4BAEE86BCDC0DF423F0A27FD7ABA924D)
  4. Complete name                            : Cloud.Atlas.2012.Bluray.1080p.x265.10bit.DDP.5.1-MiniHD.mkv
  5. Format                                   : Matroska
  6. Format version                           : Version 4
  7. File size                                : 18.1 GiB
  8. Duration                                 : 2 h 52 min
  9. Overall bit rate                         : 15.1 Mb/s
  10. Movie name                               : Cloud Atlas - Blu-ray?
  11. Encoded date                             : UTC 2021-02-08 07:01:09
  12. Writing application                      : mkvmerge v53.0.0 ('Fool's Gold') 64-bit
  13. Writing library                          : libebml v1.4.1 + libmatroska v1.6.2
  14. Cover                                    : Yes
  15. Attachments                              : cover.jpg
  16. Video
  17. ID                                       : 1
  18. Format                                   : HEVC
  19. Format/Info                              : High Efficiency Video Coding
  20. Format profile                           : Main [email protected]@High
  21. Codec ID                                 : V_MPEGH/ISO/HEVC
  22. Duration                                 : 2 h 52 min
  23. Bit rate                                 : 14.0 Mb/s
  24. Width                                    : 1 920 pixels
  25. Height                                   : 800 pixels
  26. Display aspect ratio                     : 2.40:1
  27. Frame rate mode                          : Constant
  28. Frame rate                               : 24.000 FPS
  29. Color space                              : YUV
  30. Chroma subsampling                       : 4:2:0
  31. Bit depth                                : 10 bits
  32. Bits/(Pixel*Frame)                       : 0.380
  33. Stream size                              : 16.8 GiB (93%)
  34. Writing library                          : x265 3.4+33-606265ac7:[Windows][MSVC 1928][64 bit] 10bit
  35. Encoding settings                        : cpuid=538751111039 / frame-threads=3 / numa-pools=8 / wpp / pmode / no-pme / no-psnr / no-ssim / log-level=2 / input-csp=1 / input-res=1920x800 / interlace=0 / total-frames=247954 / level-idc=0 / high-tier=1 / uhd-bd=0 / ref=4 / no-allow-non-conformance / no-repeat-headers / annexb / no-aud / no-hrd / info / hash=0 / no-temporal-layers / no-open-gop / min-keyint=1 / keyint=250 / gop-lookahead=0 / bframes=6 / b-adapt=2 / b-pyramid / bframe-bias=0 / rc-lookahead=80 / lookahead-slices=0 / NTM4NzU=uuDQuD2mJt9fsCf / scenecut=40 / hist-scenecut=0 / radl=0 / no-splice / no-intra-refresh / ctu=32 / min-cu-size=8 / no-rect / no-amp / max-tu-size=32 / tu-inter-depth=4 / tu-intra-depth=4 / limit-tu=0 / rdoq-level=2 / dynamic-rd=0.00 / no-ssim-rd / signhide / tskip / nr-intra=0 / nr-inter=0 / no-constrained-intra / strong-intra-smoothing / max-merge=5 / limit-refs=0 / no-limit-modes / me=3 / subme=7 / merange=44 / temporal-mvp / no-frame-dup / no-hme / weightp / weightb / no-analyze-src-pics / deblock=-3:-3 / no-sao / no-sao-non-deblock / rd=4 / selective-sao=0 / no-early-skip / no-rskip / no-fast-intra / no-tskip-fast / no-cu-lossless / b-intra / no-splitrd-skip / rdpenalty=0 / psy-rd=1.50 / psy-rdoq=1.00 / no-rd-refine / no-lossless / cbqpoffs=-2 / crqpoffs=-2 / rc=crf / crf=21.0 / qcomp=0.65 / qpstep=4 / stats-write=0 / stats-read=0 / vbv-maxrate=160000 / vbv-bufsize=160000 / vbv-init=0.9 / min-vbv-fullness=50.0 / max-vbv-fullness=80.0 / crf-max=0.0 / crf-min=0.0 / ipratio=1.30 / pbratio=1.20 / aq-mode=1 / aq-strength=1.00 / no-cutree / zone-count=0 / no-strict-cbr / qg-size=8 / no-rc-grain / qpmax=69 / qpmin=0 / no-const-vbv / sar=0 / overscan=0 / videoformat=5 / range=0 / colorprim=1 / transfer=1 / colormatrix=1 / chromaloc=0 / display-window=0 / cll=0,0 / min-luma=0 / max-luma=1023 / log2-max-poc-lsb=8 / vui-timing-info / vui-hrd-info / slices=1 / no-opt-qp-pps / no-opt-ref-list-length-pps / no-multi-pass-opt-rps / scenecut-bias=0.05 / hist-threshold=0.03 / no-opt-cu-delta-qp / no-aq-motion / no-hdr10 / no-hdr10-opt / no-dhdr10-opt / no-idr-recovery-sei / analysis-reuse-level=0 / analysis-save-reuse-level=0 / analysis-load-reuse-level=0 / scale-factor=0 / refine-intra=0 / refine-inter=0 / refine-mv=1 / refine-ctu-distortion=0 / no-limit-sao / ctu-info=0 / no-lowpass-dct / refine-analysis-type=0 / copy-pic=1 / max-ausize-factor=1.0 / no-dynamic-refine / no-single-sei / no-hevc-aq / no-svt / no-field / qp-adaptation-range=1.00 / scenecut-aware-qp=0conformance-window-offsets / right=0 / bottom=0 / NTM4NzU= / decoder-max-rate=0 / no-vbv-live-multi-pass
  36. Default                                  : Yes
  37. Forced                                   : No
  38. Color range                              : Limited
  39. Color primaries                          : BT.709
  40. Transfer characteristics                 : BT.709
  41. Matrix coefficients                      : BT.709
  42. Audio
  43. ID                                       : 2
  44. Format                                   : E-AC-3
  45. Format/Info                              : Enhanced AC-3
  46. Commercial name                          : Dolby Digital Plus
  47. Codec ID                                 : A_EAC3
  48. Duration                                 : 2 h 52 min
  49. Bit rate mode                            : Constant
  50. Bit rate                                 : 1 023 kb/s
  51. Channel(s)                               : 6 channels
  52. Channel layout                           : L R C LFE Ls Rs
  53. Sampling rate                            : 48.0 kHz
  54. Frame rate                               : 93.750 FPS (512 SPF)
  55. Compression mode                         : Lossy
  56. Stream size                              : 1.23 GiB (7%)
  57. Language                                 : English
  58. Service kind                             : Complete Main
  59. Default                                  : Yes
  60. Forced                                   : No
  61. Text #1
  62. ID                                       : 3
  63. ID in the original source medium         : 4609 (0x1201)
  64. Format                                   : PGS
  65. Muxing mode                              : zlib
  66. Codec ID                                 : S_HDMV/PGS
  67. Codec ID/Info                            : Picture based subtitle format used on BDs/HD-DVDs
  68. Duration                                 : 2 h 41 min
  69. Bit rate                                 : 19.8 kb/s
  70. Count of elements                        : 3786
  71. Stream size                              : 22.9 MiB (0%)
  72. Title                                    : CHS
  73. Language                                 : Chinese
  74. Default                                  : Yes
  75. Forced                                   : No
  76. Original source medium                   : Blu-ray
  77. Text #2
  78. ID                                       : 4
  79. ID in the original source medium         : 4608 (0x1200)
  80. Format                                   : PGS
  81. Muxing mode                              : zlib
  82. Codec ID                                 : S_HDMV/PGS
  83. Codec ID/Info                            : Picture based subtitle format used on BDs/HD-DVDs
  84. Duration                                 : 2 h 41 min
  85. Bit rate                                 : 20.5 kb/s
  86. Count of elements                        : 3786
  87. Stream size                              : 23.8 MiB (0%)
  88. Title                                    : CHT
  89. Language                                 : Chinese
  90. Default                                  : No
  91. Forced                                   : No
  92. Original source medium                   : Blu-ray
  93. Text #3
  94. ID                                       : 5
  95. ID in the original source medium         : 4610 (0x1202)
  96. Format                                   : PGS
  97. Muxing mode                              : zlib
  98. Codec ID                                 : S_HDMV/PGS
  99. Codec ID/Info                            : Picture based subtitle format used on BDs/HD-DVDs
  100. Duration                                 : 2 h 51 min
  101. Bit rate                                 : 33.9 kb/s
  102. Count of elements                        : 4320
  103. Stream size                              : 41.4 MiB (0%)
  104. Language                                 : English
  105. Default                                  : No
  106. Forced                                   : No
  107. Original source medium                   : Blu-ray
  108. Menu
  109. 00:00:00.000                             : en:Chapter 01
  110. 00:09:20.208                             : en:Chapter 02
  111. 00:19:05.458                             : en:Chapter 03
  112. 00:24:19.041                             : en:Chapter 04
  113. 00:31:26.125                             : en:Chapter 05
  114. 00:39:50.708                             : en:Chapter 06
  115. 00:52:29.833                             : en:Chapter 07
  116. 01:01:24.375                             : en:Chapter 08
  117. 01:08:31.916                             : en:Chapter 09
  118. 01:17:11.250                             : en:Chapter 10
  119. 01:26:28.791                             : en:Chapter 11
  120. 01:34:44.875                             : en:Chapter 12
  121. 01:43:38.666                             : en:Chapter 13
  122. 01:51:05.833                             : en:Chapter 14
  123. 02:01:00.875                             : en:Chapter 15
  124. 02:08:21.791                             : en:Chapter 16
  125. 02:17:34.541                             : en:Chapter 17
  126. 02:28:13.125                             : en:Chapter 18
  127. 02:36:35.625                             : en:Chapter 19
  128. 02:42:45.208                             : en:Chapter 20
复制代码



保举请利用qBittorrent,utorrent,transmission等标准BT软件下载!以获得最快速度。奉求保种!





回复

使用道具 举报

懒得打字嘛,点击右侧快捷回复 【右侧内容,后台自定义】
您需要登录后才可以回帖 登录 | 立即加入

本版积分规则

Archiver|小黑屋| 蓝光电影网 |网站地图

Copyright © 2021 Comsenz Inc. Powered by 蓝光电影网

蓝光电影网

本站内容由用户自主分享和转载自互联网,转载目的在于传递更多信息,并不代表本网赞同其观点和对其真实性负责。

如有侵权、违反国家法律政策行为,请联系我们,我们会第一时间及时清除和处理!

举报反馈邮箱:[email protected]

快速回复 返回顶部 返回列表