找回密码

蓝光电影网

查看: 107|回复: 1

[剧情] 最初的梦想[简繁字幕].Chhichhore.2019.1080p.JPN.Bluray.x265.10bit.DDP.5.1-MiniHD 8.55GB

[复制链接]
蓝光币
8
发表于 2022-7-28 01:51:29 | 显示全部楼层 |阅读模式


◎标  题 最初的胡想
◎译  名 万万没想到(台)
◎片  名 Chhichhore
◎年  代 2019
◎产  地 印度
◎类  别 剧情 / 笑剧
◎语  言 印地语
◎上映日期 2022-01-07(中国大陆) / 2019-09-06(印度)
◎IMDb评分 8.2/10 (50328人评价)
◎IMDb链接 https://www.imdb.com/title/tt9052870/
◎豆瓣评分 6.9/10 (23262人评价)
◎豆瓣链接 https://movie.douban.com/subject/34787747/
◎片  长 143分钟
◎导  演 涅提·蒂瓦里 Nitesh Tiwari
◎编  剧 比于什·古普塔 Piyush Gupta
       尼基尔·麦罗特拉 Nikhil Mehrotra
       涅提·蒂瓦里 Nitesh Tiwari
◎演  员 苏尚特·辛格·拉吉普特 Sushant Singh Rajput
       施拉德哈·卡普尔 Shraddha Kapoor
       瓦伦·沙玛 Varun Sharma
       普拉提克·巴巴尔 Prateik Babbar
       塔希尔·拉吉·巴辛 Tahir Raj Bhasin
       纳文·波利希蒂 Naveen Polishetty
       图沙尔·潘迪 Tushar Pandey
       萨哈什·库马尔·舒克拉 Saharsh Kumar Shukla
       罗希特·乔汉 Rohit Chauhan
       纳尼什·尼尔 Nalneesh Neel
       阿比纳夫·巴特查吉 Abhinav Bhattacharjee
       尼尔·多克特 Neil Dhokte
       艾比希·约瑟夫·乔治 Abishek Joseph George
       维沙尔·古普塔 Vishal Gupta
       阿姆里特·卡什亚普 Amrit Kashyap
       什沙尔·夏尔马 Shishir Sharma
◎简  介
  被帕塔克(苏尚特·辛格·拉吉普特 饰)寄与厚望的儿子拉加夫高考失利,因没法忍受“失利者”的标签而发买卖外。面临病床前损失期心的儿子,帕塔克报告了大学时代,自己与朋友们以及前妻玛雅(施拉达·卡普尔 饰),为了完成“失利者”的逆袭,在冠军联赛中“损招”尽出的故事。一段啼笑皆非的青春往事揭开帷幕,他们会实现最初的胡想吗?
  1. ##### MediaInfo ######
  2. General
  3. Unique ID                                : 878277102549500799953739824370971563 (0xA9266785BE31C29EBA3B21666273AB)
  4. Complete name                            : Chhichhore.2019.1080p.JPN.Bluray.x265.10bit.DDP.5.1-MiniHD.mkv
  5. Format                                   : Matroska
  6. Format version                           : Version 4
  7. File size                                : 8.55 GiB
  8. Duration                                 : 2 h 23 min
  9. Overall bit rate                         : 8 524 kb/s
  10. Movie name                               : Chhichhore 2019 Bluray 1080p FRDS
  11. Encoded date                             : UTC 2021-02-28 15:09:59
  12. Writing application                      : mkvmerge v53.0.0 ('Fool's Gold') 64-bit
  13. Writing library                          : libebml v1.4.1 + libmatroska v1.6.2
  14. Cover                                    : Yes
  15. Attachments                              : cover.jpg
  16. Video
  17. ID                                       : 1
  18. Format                                   : HEVC
  19. Format/Info                              : High Efficiency Video Coding
  20. Format profile                           : Main [email protected]@High
  21. Codec ID                                 : V_MPEGH/ISO/HEVC
  22. Duration                                 : 2 h 23 min
  23. Bit rate                                 : 7 462 kb/s
  24. Width                                    : 1 920 pixels
  25. Height                                   : 800 pixels
  26. Display aspect ratio                     : 2.40:1
  27. Frame rate mode                          : Constant
  28. Frame rate                               : 24.000 FPS
  29. Color space                              : YUV
  30. Chroma subsampling                       : 4:2:0
  31. Bit depth                                : 10 bits
  32. Bits/(Pixel*Frame)                       : 0.202
  33. Stream size                              : 7.48 GiB (88%)
  34. Writing library                          : x265 3.4+33-606265ac7:[Windows][MSVC 1928][64 bit] 10bit
  35. Encoding settings                        : cpuid=538751111039 / frame-threads=3 / numa-pools=8 / wpp / pmode / no-pme / no-psnr / no-ssim / log-level=2 / input-csp=1 / input-res=1920x800 / interlace=0 / total-frames=206736 / level-idc=0 / high-tier=1 / uhd-bd=0 / ref=4 / no-allow-non-conformance / no-repeat-headers / annexb / no-aud / no-hrd / info / hash=0 / no-temporal-layers / no-open-gop / min-keyint=1 / keyint=250 / gop-lookahead=0 / bframes=6 / b-adapt=2 / b-pyramid / bframe-bias=0 / rc-lookahead=80 / lookahead-slices=0 / NTM4NzU=uuDQuD2mJt9fsCf / scenecut=40 / hist-scenecut=0 / radl=0 / no-splice / no-intra-refresh / ctu=32 / min-cu-size=8 / no-rect / no-amp / max-tu-size=32 / tu-inter-depth=4 / tu-intra-depth=4 / limit-tu=0 / rdoq-level=2 / dynamic-rd=0.00 / no-ssim-rd / signhide / tskip / nr-intra=0 / nr-inter=0 / no-constrained-intra / strong-intra-smoothing / max-merge=5 / limit-refs=0 / no-limit-modes / me=3 / subme=7 / merange=44 / temporal-mvp / no-frame-dup / no-hme / weightp / weightb / no-analyze-src-pics / deblock=-3:-3 / no-sao / no-sao-non-deblock / rd=4 / selective-sao=0 / no-early-skip / no-rskip / no-fast-intra / no-tskip-fast / no-cu-lossless / b-intra / no-splitrd-skip / rdpenalty=0 / psy-rd=1.50 / psy-rdoq=1.00 / no-rd-refine / no-lossless / cbqpoffs=-2 / crqpoffs=-2 / rc=crf / crf=19.0 / qcomp=0.65 / qpstep=4 / stats-write=0 / stats-read=0 / vbv-maxrate=160000 / vbv-bufsize=160000 / vbv-init=0.9 / min-vbv-fullness=50.0 / max-vbv-fullness=80.0 / crf-max=0.0 / crf-min=0.0 / ipratio=1.30 / pbratio=1.20 / aq-mode=1 / aq-strength=1.00 / no-cutree / zone-count=0 / no-strict-cbr / qg-size=8 / no-rc-grain / qpmax=69 / qpmin=0 / no-const-vbv / sar=0 / overscan=0 / videoformat=5 / range=0 / colorprim=1 / transfer=1 / colormatrix=1 / chromaloc=0 / display-window=0 / cll=0,0 / min-luma=0 / max-luma=1023 / log2-max-poc-lsb=8 / vui-timing-info / vui-hrd-info / slices=1 / no-opt-qp-pps / no-opt-ref-list-length-pps / no-multi-pass-opt-rps / scenecut-bias=0.05 / hist-threshold=0.03 / no-opt-cu-delta-qp / no-aq-motion / no-hdr10 / no-hdr10-opt / no-dhdr10-opt / no-idr-recovery-sei / analysis-reuse-level=0 / analysis-save-reuse-level=0 / analysis-load-reuse-level=0 / scale-factor=0 / refine-intra=0 / refine-inter=0 / refine-mv=1 / refine-ctu-distortion=0 / no-limit-sao / ctu-info=0 / no-lowpass-dct / refine-analysis-type=0 / copy-pic=1 / max-ausize-factor=1.0 / no-dynamic-refine / no-single-sei / no-hevc-aq / no-svt / no-field / qp-adaptation-range=1.00 / scenecut-aware-qp=0conformance-window-offsets / right=0 / bottom=0 / NTM4NzU= / decoder-max-rate=0 / no-vbv-live-multi-pass
  36. Default                                  : Yes
  37. Forced                                   : No
  38. Color range                              : Limited
  39. Color primaries                          : BT.709
  40. Transfer characteristics                 : BT.709
  41. Matrix coefficients                      : BT.709
  42. Audio
  43. ID                                       : 2
  44. Format                                   : E-AC-3
  45. Format/Info                              : Enhanced AC-3
  46. Commercial name                          : Dolby Digital Plus
  47. Codec ID                                 : A_EAC3
  48. Duration                                 : 2 h 23 min
  49. Bit rate mode                            : Constant
  50. Bit rate                                 : 1 023 kb/s
  51. Channel(s)                               : 6 channels
  52. Channel layout                           : L R C LFE Ls Rs
  53. Sampling rate                            : 48.0 kHz
  54. Frame rate                               : 93.750 FPS (512 SPF)
  55. Compression mode                         : Lossy
  56. Stream size                              : 1.03 GiB (12%)
  57. Language                                 : inc
  58. Service kind                             : Complete Main
  59. Default                                  : Yes
  60. Forced                                   : No
  61. Text #1
  62. ID                                       : 3
  63. ID in the original source medium         : 4609 (0x1201)
  64. Format                                   : PGS
  65. Muxing mode                              : zlib
  66. Codec ID                                 : S_HDMV/PGS
  67. Codec ID/Info                            : Picture based subtitle format used on BDs/HD-DVDs
  68. Duration                                 : 2 h 20 min
  69. Bit rate                                 : 21.5 kb/s
  70. Count of elements                        : 3487
  71. Stream size                              : 21.6 MiB (0%)
  72. Title                                    : CHS
  73. Language                                 : Chinese
  74. Default                                  : No
  75. Forced                                   : No
  76. Original source medium                   : Blu-ray
  77. Text #2
  78. ID                                       : 4
  79. ID in the original source medium         : 4610 (0x1202)
  80. Format                                   : PGS
  81. Muxing mode                              : zlib
  82. Codec ID                                 : S_HDMV/PGS
  83. Codec ID/Info                            : Picture based subtitle format used on BDs/HD-DVDs
  84. Duration                                 : 2 h 20 min
  85. Bit rate                                 : 25.1 kb/s
  86. Count of elements                        : 3487
  87. Stream size                              : 25.2 MiB (0%)
  88. Title                                    : CHT
  89. Language                                 : Chinese
  90. Default                                  : No
  91. Forced                                   : No
  92. Original source medium                   : Blu-ray
  93. Text #3
  94. ID                                       : 5
  95. Format                                   : PGS
  96. Muxing mode                              : zlib
  97. Codec ID                                 : S_HDMV/PGS
  98. Codec ID/Info                            : Picture based subtitle format used on BDs/HD-DVDs
  99. Duration                                 : 2 h 22 min
  100. Bit rate                                 : 24.5 kb/s
  101. Count of elements                        : 3596
  102. Stream size                              : 24.9 MiB (0%)
  103. Language                                 : Japanese
  104. Default                                  : Yes
  105. Forced                                   : No
  106. Menu
  107. 00:00:00.000                             : en:Chapter 01
  108. 00:04:49.958                             : en:Chapter 02
  109. 00:13:36.708                             : en:Chapter 03
  110. 00:23:49.333                             : en:Chapter 04
  111. 00:35:18.833                             : en:Chapter 05
  112. 00:47:36.666                             : en:Chapter 06
  113. 01:01:00.083                             : en:Chapter 07
  114. 01:14:41.125                             : en:Chapter 08
  115. 01:32:28.416                             : en:Chapter 09
  116. 01:45:56.916                             : en:Chapter 10
  117. 01:59:45.708                             : en:Chapter 11
  118. 02:17:01.625                             : en:Chapter 12
  119. 02:23:24.000                             : en:Chapter 13
复制代码



保举请利用qBittorrent,utorrent,transmission等标准BT软件下载!以获得最快速度。奉求保种!





回复

使用道具 举报

蓝光币
68
发表于 2022-7-28 01:58:16 | 显示全部楼层
楼主发贴辛苦了,谢谢楼主分享!我觉得蓝光电影网是注册对了!
回复 支持 反对

使用道具 举报

懒得打字嘛,点击右侧快捷回复 【右侧内容,后台自定义】
您需要登录后才可以回帖 登录 | 立即加入

本版积分规则

Archiver|小黑屋| 蓝光电影网 |网站地图

Copyright © 2021 Comsenz Inc. Powered by 蓝光电影网

蓝光电影网

本站内容由用户自主分享和转载自互联网,转载目的在于传递更多信息,并不代表本网赞同其观点和对其真实性负责。

如有侵权、违反国家法律政策行为,请联系我们,我们会第一时间及时清除和处理!

举报反馈邮箱:[email protected]

快速回复 返回顶部 返回列表