找回密码

蓝光电影网

查看: 135|回复: 0

[剧情] 赏金杀手[简英字幕].Bounty.Killer.2013.Bluray.1080p.x265.10bit.DDP.5.1-MiniHD 3.25GB

[复制链接]
蓝光币
8
发表于 2022-7-28 01:51:31 | 显示全部楼层 |阅读模式


◎标  题 赏金杀手
◎片  名 Bounty Killer
◎年  代 2013
◎产  地 美国
◎类  别 行动 / 科幻 / 惊悚
◎语  言 英语
◎上映日期 2013-09-06(美国)
◎IMDb评分 5.5/10 (7086人评价)
◎IMDb链接 https://www.imdb.com/title/tt2369396/
◎豆瓣评分 5.4/10 (2416人评价)
◎豆瓣链接 https://movie.douban.com/subject/19899478/
◎片  长 92分钟
◎导  演 Henry Saine Henry Saine
◎编  剧 Colin Ebeling Colin Ebeling
       Jason Dodson Jason Dodson
       Henry Saine Henry Saine
◎演  员 马修·马斯登 Matthew Marsden
       克里斯塔娜·洛肯 Kristanna Loken
       克里斯蒂安·皮特雷 Christian Pitre
       巴拉克·哈德利 Barak Hardley
       亚布拉哈姆·本鲁比 Abraham Benrubi
       加里·布塞 Gary Busey
       比佛莉·德安姬罗 Beverly D'Angelo
       凯文·麦克纳利 Kevin McNally
       阿丽夏·维加 Alexa Vega
       查斯蒂·巴勒斯特罗斯 Chasty Ballesteros
◎标  签 行动 / 血腥 / 美国 / 暴力 / 美国电影 / 2013 / cult / 犯罪
◎简  介
    未来天下,各个天下强国被贸易气力所征服。受好处驱使,各大产业巨头汇集兵器和强手,向合作对手展开无情挞伐与屠杀。绵亘多年的战争事后,已经富贵大都会化为废墟,贸易领袖们则囊括财富逃遁。废墟当中诞生九人议会,他们在重建文化复兴的希望同时,雇佣了很多赏金杀手追杀那些贪欲横生的贸易巨头,这些为民除害的杀手也成为底层群众的豪杰和偶像。流浪者崔弗特(马修·马斯登 Matthew Marsden 饰)正是其中俊彦,引得名叫杰克(Barak Hardley 饰)的胖男人自告奋勇当他的助手。谁知一张通缉令却将崔弗特逼到绝地,现实和与之风头无量的赏金猎手灭亡玛丽(Christian Pitre 饰)一阵互搏,随后和杰克他上凶恶旅途,试图压服议会。                                                                      复杂的情势下,崔弗特命悬一线……
  1. ##### MediaInfo ######
  2. General
  3. Unique ID                                : 291783596214853485425251223139516896974 (0xDB8379FD6B47CB18A3933D13556756CE)
  4. Complete name                            : Bounty.Killer.2013.Bluray.1080p.x265.10bit.DDP.5.1-MiniHD.mkv
  5. Format                                   : Matroska
  6. Format version                           : Version 4
  7. File size                                : 3.25 GiB
  8. Duration                                 : 1 h 32 min
  9. Overall bit rate                         : 5 021 kb/s
  10. Encoded date                             : UTC 2021-01-23 04:30:20
  11. Writing application                      : mkvmerge v51.0.0 ('I Wish') 64-bit
  12. Writing library                          : libebml v1.4.0 + libmatroska v1.6.2
  13. Video
  14. ID                                       : 1
  15. Format                                   : HEVC
  16. Format/Info                              : High Efficiency Video Coding
  17. Format profile                           : Main [email protected]@High
  18. Codec ID                                 : V_MPEGH/ISO/HEVC
  19. Duration                                 : 1 h 32 min
  20. Bit rate                                 : 4 250 kb/s
  21. Width                                    : 1 920 pixels
  22. Height                                   : 800 pixels
  23. Display aspect ratio                     : 2.40:1
  24. Frame rate mode                          : Constant
  25. Frame rate                               : 23.976 (24000/1001/53875) FPS
  26. Color space                              : YUV
  27. Chroma subsampling                       : 4:2:0
  28. Bit depth                                : 10 bits
  29. Bits/(Pixel*Frame)                       : 0.115
  30. Stream size                              : 2.75 GiB (85%)
  31. Writing library                          : x265 3.4+33-606265ac7:[Windows][MSVC 1928][64 bit] 10bit
  32. Encoding settings                        : cpuid=538751111039 / frame-threads=3 / numa-pools=8 / wpp / pmode / no-pme / no-psnr / no-ssim / log-level=2 / input-csp=1 / input-res=1920x800 / interlace=0 / total-frames=133201 / level-idc=0 / high-tier=1 / uhd-bd=0 / ref=4 / no-allow-non-conformance / no-repeat-headers / annexb / no-aud / no-hrd / info / hash=0 / no-temporal-layers / no-open-gop / min-keyint=1 / keyint=250 / gop-lookahead=0 / bframes=6 / b-adapt=2 / b-pyramid / bframe-bias=0 / rc-lookahead=80 / lookahead-slices=0 / NTM4NzU=uuDQuD2mJt9fsCf / scenecut=40 / hist-scenecut=0 / radl=0 / no-splice / no-intra-refresh / ctu=32 / min-cu-size=8 / no-rect / no-amp / max-tu-size=32 / tu-inter-depth=4 / tu-intra-depth=4 / limit-tu=0 / rdoq-level=2 / dynamic-rd=0.00 / no-ssim-rd / signhide / tskip / nr-intra=0 / nr-inter=0 / no-constrained-intra / strong-intra-smoothing / max-merge=5 / limit-refs=0 / no-limit-modes / me=3 / subme=7 / merange=44 / temporal-mvp / no-frame-dup / no-hme / weightp / weightb / no-analyze-src-pics / deblock=-3:-3 / no-sao / no-sao-non-deblock / rd=4 / selective-sao=0 / no-early-skip / no-rskip / no-fast-intra / no-tskip-fast / no-cu-lossless / b-intra / no-splitrd-skip / rdpenalty=0 / psy-rd=1.50 / psy-rdoq=1.00 / no-rd-refine / no-lossless / cbqpoffs=-2 / crqpoffs=-2 / rc=crf / crf=21.0 / qcomp=0.65 / qpstep=4 / stats-write=0 / stats-read=0 / vbv-maxrate=160000 / vbv-bufsize=160000 / vbv-init=0.9 / min-vbv-fullness=50.0 / max-vbv-fullness=80.0 / crf-max=0.0 / crf-min=0.0 / ipratio=1.30 / pbratio=1.20 / aq-mode=2 / aq-strength=0.90 / no-cutree / zone-count=0 / no-strict-cbr / qg-size=8 / no-rc-grain / qpmax=69 / qpmin=0 / no-const-vbv / sar=0 / overscan=0 / videoformat=5 / range=0 / colorprim=1 / transfer=1 / colormatrix=1 / chromaloc=0 / display-window=0 / cll=0,0 / min-luma=0 / max-luma=1023 / log2-max-poc-lsb=8 / vui-timing-info / vui-hrd-info / slices=1 / no-opt-qp-pps / no-opt-ref-list-length-pps / no-multi-pass-opt-rps / scenecut-bias=0.05 / hist-threshold=0.03 / no-opt-cu-delta-qp / no-aq-motion / no-hdr10 / no-hdr10-opt / no-dhdr10-opt / no-idr-recovery-sei / analysis-reuse-level=0 / analysis-save-reuse-level=0 / analysis-load-reuse-level=0 / scale-factor=0 / refine-intra=0 / refine-inter=0 / refine-mv=1 / refine-ctu-distortion=0 / no-limit-sao / ctu-info=0 / no-lowpass-dct / refine-analysis-type=0 / copy-pic=1 / max-ausize-factor=1.0 / no-dynamic-refine / no-single-sei / no-hevc-aq / no-svt / no-field / qp-adaptation-range=1.00 / scenecut-aware-qp=0conformance-window-offsets / right=0 / bottom=0 / NTM4NzU= / decoder-max-rate=0 / no-vbv-live-multi-pass
  33. Default                                  : Yes
  34. Forced                                   : No
  35. Color range                              : Limited
  36. Color primaries                          : BT.709
  37. Transfer characteristics                 : BT.709
  38. Matrix coefficients                      : BT.709
  39. Audio
  40. ID                                       : 2
  41. Format                                   : E-AC-3
  42. Format/Info                              : Enhanced AC-3
  43. Commercial name                          : Dolby Digital Plus
  44. Codec ID                                 : A_EAC3
  45. Duration                                 : 1 h 32 min
  46. Bit rate mode                            : Constant
  47. Bit rate                                 : 768 kb/s
  48. Channel(s)                               : 6 channels
  49. Channel layout                           : L R C LFE Ls Rs
  50. Sampling rate                            : 48.0 kHz
  51. Frame rate                               : 62.500 FPS (768 SPF)
  52. Compression mode                         : Lossy
  53. Stream size                              : 509 MiB (15%)
  54. Language                                 : English
  55. Service kind                             : Complete Main
  56. Default                                  : Yes
  57. Forced                                   : No
  58. Text #1
  59. ID                                       : 3
  60. Format                                   : UTF-8
  61. Codec ID                                 : S_TEXT/UTF8
  62. Codec ID/Info                            : UTF-8 Plain Text
  63. Duration                                 : 1 h 30 min
  64. Bit rate                                 : 97 b/s
  65. Count of elements                        : 2443
  66. Stream size                              : 64.8 KiB (0%)
  67. Title                                    : chs&eng
  68. Language                                 : Multiple languages
  69. Default                                  : Yes
  70. Forced                                   : No
  71. Text #2
  72. ID                                       : 4
  73. Format                                   : UTF-8
  74. Codec ID                                 : S_TEXT/UTF8
  75. Codec ID/Info                            : UTF-8 Plain Text
  76. Duration                                 : 1 h 26 min
  77. Bit rate                                 : 48 b/s
  78. Count of elements                        : 1239
  79. Stream size                              : 30.5 KiB (0%)
  80. Title                                    : CHS
  81. Language                                 : Chinese
  82. Default                                  : No
  83. Forced                                   : No
  84. Text #3
  85. ID                                       : 5
  86. Format                                   : UTF-8
  87. Codec ID                                 : S_TEXT/UTF8
  88. Codec ID/Info                            : UTF-8 Plain Text
  89. Duration                                 : 1 h 30 min
  90. Bit rate                                 : 51 b/s
  91. Count of elements                        : 1204
  92. Stream size                              : 34.3 KiB (0%)
  93. Language                                 : English
  94. Default                                  : No
  95. Forced                                   : No
  96. Text #4
  97. ID                                       : 6
  98. Format                                   : ASS
  99. Codec ID                                 : S_TEXT/ASS
  100. Codec ID/Info                            : Advanced Sub Station Alpha
  101. Duration                                 : 1 h 26 min
  102. Bit rate                                 : 285 b/s
  103. Count of elements                        : 2362
  104. Compression mode                         : Lossless
  105. Stream size                              : 180 KiB (0%)
  106. Title                                    : chs&eng
  107. Language                                 : Multiple languages
  108. Default                                  : No
  109. Forced                                   : No
  110. Menu
  111. 00:00:00.000                             : en:Chapter 1
  112. 00:04:48.037                             : en:Chapter 2
  113. 00:11:50.126                             : en:Chapter 3
  114. 00:17:01.979                             : en:Chapter 4
  115. 00:27:07.626                             : en:Chapter 5
  116. 00:32:17.685                             : en:Chapter 6
  117. 00:39:53.974                             : en:Chapter 7
  118. 00:49:40.227                             : en:Chapter 8
  119. 00:56:52.158                             : en:Chapter 9
  120. 01:03:08.993                             : en:Chapter 10
  121. 01:13:51.427                             : en:Chapter 11
  122. 01:24:31.816                             : en:Chapter 12
复制代码

















保举请利用qBittorrent,utorrent,transmission等标准BT软件下载!以获得最快速度。奉求保种!





回复

使用道具 举报

懒得打字嘛,点击右侧快捷回复 【右侧内容,后台自定义】
您需要登录后才可以回帖 登录 | 立即加入

本版积分规则

Archiver|小黑屋| 蓝光电影网 |网站地图

Copyright © 2021 Comsenz Inc. Powered by 蓝光电影网

蓝光电影网

本站内容由用户自主分享和转载自互联网,转载目的在于传递更多信息,并不代表本网赞同其观点和对其真实性负责。

如有侵权、违反国家法律政策行为,请联系我们,我们会第一时间及时清除和处理!

举报反馈邮箱:[email protected]

快速回复 返回顶部 返回列表