找回密码

蓝光电影网

查看: 47|回复: 0

[剧情] 撕票风云[国粤多音轨/简繁英字幕].Black.Ransom.2010.Bluray.1080p.x265.10bit-MiniHD 5.53GB

[复制链接]
蓝光币
7
发表于 2022-7-28 01:51:35 | 显示全部楼层 |阅读模式


◎标  题 撕票风云
◎译  名 黑白战警 / 变种差人 / Black Ransom
◎片  名 撕票風雲
◎年  代 2010
◎产  地 中国香港
◎类  别 行动 / 惊悚
◎语  言 粤语
◎上映日期 2010-01-07
◎IMDb评分 5.7/10 (524人评价)
◎IMDb链接 https://www.imdb.com/title/tt1572168/
◎豆瓣评分 5.9/10 (8478人评价)
◎豆瓣链接 https://movie.douban.com/subject/4189695/
◎片  长 93 分钟
◎导  演 姜百姓 Kwok-Man Keung
◎编  剧 王晶 Jing Wong
◎演  员 苗侨伟 Kiu Wai Miu
       任达华 Simon Yam
       陈法拉 Fala Chen
       安志杰 Andy On
       黄德斌 Tak-bun Wong
       瞿颖 Ying Qu
       释彦能 Yanneng Shi
       黄柏文 Parkman Wong
       吴志雄 Chi Hung Ng
       郑丽莎 Lisa Cheng
       谭镇渡 Tony Tam Chun-To
       罗伟佳 Wai-Kai Law
       王青 Ching Wong
       裕美 Hiromi Wada
       陈保元 Ricky Chan Po-Yuen
       梁敏仪 Winnie Leung
       张权 Kuen Cheung
       彭敬慈 Samuel Pang
       王浩信 Vincent Wong
       刘洋 Young Liu
◎标  签 香港电影 / 香港 / 警匪 / 任达华 / 苗侨伟 / 行动 / 犯罪 / 2010
◎简  介
    连串黑帮老迈遭绑架、勒索以及撕票,警方对此案观察毫无眉目。警队B组队长张博文(任达华 饰)曾为警队立下汗马功勋,但从其妻子遭黑帮报复被杀后,加上A组队长的排挤,他起头悲观处世。警方接到报案,又一黑帮头子遭绑架,新任总警司古国强(陈法拉 饰)召集两组人马对此案展开周全侦察。由于A组队长轻敌,加上犯罪份子做案手法高明,配合周密,在一次行动中警方蒙受重创。此时,在古警司的请求下,张博文率领手下唯一的两名捕快起头黑暗观察此案。经过慎密观察以后,张博文把犯罪份子的头子方针锁定为曾为警方督察的何湛森(苗侨伟 饰),他的手下包括多名原飞虎队成员,而何湛森绑架黑帮老迈的实在目标是为其被黑帮报复杀戮的弟弟的报仇……
  1. ##### MediaInfo ######
  2. General
  3. Unique ID                                : 29238635139890365636017465791008634067 (0x15FF2802F12CFE1F759895DA155A74D3)
  4. Complete name                            : Black.Ransom.2010.Bluray.1080p.x265.10bit-MiniHD.mkv
  5. Format                                   : Matroska
  6. Format version                           : Version 4
  7. File size                                : 5.53 GiB
  8. Duration                                 : 1 h 32 min
  9. Overall bit rate                         : 8 556 kb/s
  10. Movie name                               : Black Ransom [2010] 1080p BluRay MNHD-FRDS
  11. Encoded date                             : UTC 2021-01-14 09:27:24
  12. Writing application                      : mkvmerge v52.0.0 ('Secret For The Mad') 64-bit
  13. Writing library                          : libebml v1.4.1 + libmatroska v1.6.2
  14. Video
  15. ID                                       : 6
  16. Format                                   : HEVC
  17. Format/Info                              : High Efficiency Video Coding
  18. Format profile                           : Main [email protected]@High
  19. Codec ID                                 : V_MPEGH/ISO/HEVC
  20. Duration                                 : 1 h 32 min
  21. Bit rate                                 : 7 221 kb/s
  22. Width                                    : 1 918 pixels
  23. Height                                   : 812 pixels
  24. Display aspect ratio                     : 2.35:1
  25. Frame rate mode                          : Constant
  26. Frame rate                               : 24.000 FPS
  27. Color space                              : YUV
  28. Chroma subsampling                       : 4:2:0
  29. Bit depth                                : 10 bits
  30. Bits/(Pixel*Frame)                       : 0.193
  31. Stream size                              : 4.66 GiB (84%)
  32. Writing library                          : x265 3.4+30-g6722fce1f:[Windows][GCC 10.2.0][64 bit] 10bit
  33. Encoding settings                        : cpuid=538751111039 / frame-threads=3 / numa-pools=8 / wpp / pmode / no-pme / no-psnr / no-ssim / log-level=2 / input-csp=1 / input-res=1918x812 / interlace=0 / total-frames=133157 / level-idc=0 / high-tier=1 / uhd-bd=0 / ref=6 / no-allow-non-conformance / no-repeat-headers / annexb / no-aud / no-hrd / info / hash=0 / no-temporal-layers / no-open-gop / min-keyint=24 / keyint=250 / gop-lookahead=0 / bframes=16 / b-adapt=2 / b-pyramid / bframe-bias=0 / rc-lookahead=100 / lookahead-slices=0 / NTM4NzU=uuDQuD2mJt9fsCf / scenecut=40 / hist-scenecut=0 / radl=0 / no-splice / no-intra-refresh / ctu=32 / min-cu-size=8 / no-rect / no-amp / max-tu-size=32 / tu-inter-depth=4 / tu-intra-depth=4 / limit-tu=0 / rdoq-level=2 / dynamic-rd=0.00 / no-ssim-rd / signhide / no-tskip / nr-intra=0 / nr-inter=0 / no-constrained-intra / strong-intra-smoothing / max-merge=5 / limit-refs=0 / no-limit-modes / me=3 / subme=7 / merange=57 / temporal-mvp / no-frame-dup / no-hme / weightp / weightb / no-analyze-src-pics / deblock=-3:-3 / no-sao / no-sao-non-deblock / rd=4 / selective-sao=0 / no-early-skip / no-rskip / no-fast-intra / no-tskip-fast / no-cu-lossless / b-intra / no-splitrd-skip / rdpenalty=0 / psy-rd=1.00 / psy-rdoq=1.00 / no-rd-refine / no-lossless / cbqpoffs=0 / crqpoffs=0 / rc=crf / crf=21.0 / qcomp=0.60 / qpstep=4 / stats-write=0 / stats-read=0 / vbv-maxrate=160000 / vbv-bufsize=160000 / vbv-init=0.9 / min-vbv-fullness=50.0 / max-vbv-fullness=80.0 / crf-max=0.0 / crf-min=0.0 / ipratio=1.30 / pbratio=1.20 / aq-mode=1 / aq-strength=1.00 / no-cutree / zone-count=0 / no-strict-cbr / qg-size=32 / no-rc-grain / qpmax=69 / qpmin=0 / no-const-vbv / sar=0 / overscan=0 / videoformat=5 / range=0 / colorprim=1 / transfer=1 / colormatrix=1 / chromaloc=0 / display-window=0 / cll=0,0 / min-luma=0 / max-luma=1023 / log2-max-poc-lsb=8 / vui-timing-info / vui-hrd-info / slices=1 / no-opt-qp-pps / no-opt-ref-list-length-pps / no-multi-pass-opt-rps / scenecut-bias=0.05 / hist-threshold=0.03 / no-opt-cu-delta-qp / no-aq-motion / no-hdr10 / no-hdr10-opt / no-dhdr10-opt / no-idr-recovery-sei / analysis-reuse-level=0 / analysis-save-reuse-level=0 / analysis-load-reuse-level=0 / scale-factor=0 / refine-intra=0 / refine-inter=0 / refine-mv=1 / refine-ctu-distortion=0 / no-limit-sao / ctu-info=0 / no-lowpass-dct / refine-analysis-type=0 / copy-pic=1 / max-ausize-factor=1.0 / no-dynamic-refine / no-single-sei / no-hevc-aq / no-svt / no-field / qp-adaptation-range=1.00 / no-scenecut-aware-qpconformance-window-offsets / right=0 / bottom=0 / NTM4NzU= / decoder-max-rate=0 / no-vbv-live-multi-pass
  34. Default                                  : Yes
  35. Forced                                   : No
  36. Color range                              : Limited
  37. Color primaries                          : BT.709
  38. Transfer characteristics                 : BT.709
  39. Matrix coefficients                      : BT.709
  40. Audio #1
  41. ID                                       : 1
  42. Format                                   : AC-3
  43. Format/Info                              : Audio Coding 3
  44. Commercial name                          : Dolby Digital
  45. Codec ID                                 : A_AC3
  46. Duration                                 : 1 h 32 min
  47. Bit rate mode                            : Constant
  48. Bit rate                                 : 640 kb/s
  49. Channel(s)                               : 6 channels
  50. Channel layout                           : L R C LFE Ls Rs
  51. Sampling rate                            : 48.0 kHz
  52. Frame rate                               : 31.250 FPS (1536 SPF)
  53. Compression mode                         : Lossy
  54. Stream size                              : 423 MiB (7%)
  55. Title                                    : Cantonese
  56. Language                                 : Chinese
  57. Service kind                             : Complete Main
  58. Default                                  : Yes
  59. Forced                                   : No
  60. Audio #2
  61. ID                                       : 2
  62. Format                                   : AC-3
  63. Format/Info                              : Audio Coding 3
  64. Commercial name                          : Dolby Digital
  65. Codec ID                                 : A_AC3
  66. Duration                                 : 1 h 32 min
  67. Bit rate mode                            : Constant
  68. Bit rate                                 : 640 kb/s
  69. Channel(s)                               : 6 channels
  70. Channel layout                           : L R C LFE Ls Rs
  71. Sampling rate                            : 48.0 kHz
  72. Frame rate                               : 31.250 FPS (1536 SPF)
  73. Compression mode                         : Lossy
  74. Stream size                              : 423 MiB (7%)
  75. Title                                    : Mandarin
  76. Language                                 : Chinese
  77. Service kind                             : Complete Main
  78. Default                                  : No
  79. Forced                                   : No
  80. Text #1
  81. ID                                       : 3
  82. Format                                   : PGS
  83. Muxing mode                              : zlib
  84. Codec ID                                 : S_HDMV/PGS
  85. Codec ID/Info                            : Picture based subtitle format used on BDs/HD-DVDs
  86. Duration                                 : 1 h 27 min
  87. Bit rate                                 : 32.8 kb/s
  88. Count of elements                        : 2311
  89. Stream size                              : 20.5 MiB (0%)
  90. Title                                    : cht
  91. Language                                 : Chinese
  92. Default                                  : No
  93. Forced                                   : No
  94. Text #2
  95. ID                                       : 4
  96. Format                                   : PGS
  97. Muxing mode                              : zlib
  98. Codec ID                                 : S_HDMV/PGS
  99. Codec ID/Info                            : Picture based subtitle format used on BDs/HD-DVDs
  100. Duration                                 : 1 h 27 min
  101. Bit rate                                 : 32.1 kb/s
  102. Count of elements                        : 2311
  103. Stream size                              : 20.0 MiB (0%)
  104. Title                                    : chs
  105. Language                                 : Chinese
  106. Default                                  : Yes
  107. Forced                                   : No
  108. Text #3
  109. ID                                       : 5
  110. Format                                   : PGS
  111. Muxing mode                              : zlib
  112. Codec ID                                 : S_HDMV/PGS
  113. Codec ID/Info                            : Picture based subtitle format used on BDs/HD-DVDs
  114. Duration                                 : 1 h 27 min
  115. Bit rate                                 : 38.3 kb/s
  116. Count of elements                        : 2325
  117. Stream size                              : 23.9 MiB (0%)
  118. Title                                    : eng
  119. Language                                 : English
  120. Default                                  : No
  121. Forced                                   : No
  122. Menu
  123. 00:00:00.000                             : :CHAPTER01
  124. 00:10:00.000                             : :CHAPTER02
  125. 00:20:00.000                             : :CHAPTER03
  126. 00:30:00.000                             : :CHAPTER04
  127. 00:40:00.000                             : :CHAPTER05
  128. 00:50:00.000                             : :CHAPTER06
  129. 01:00:00.000                             : :CHAPTER07
  130. 01:10:00.000                             : :CHAPTER08
  131. 01:20:00.000                             : :CHAPTER09
  132. 01:30:00.000                             : :CHAPTER10
复制代码

















保举请利用qBittorrent,utorrent,transmission等标准BT软件下载!以获得最快速度。奉求保种!





回复

使用道具 举报

懒得打字嘛,点击右侧快捷回复 【右侧内容,后台自定义】
您需要登录后才可以回帖 登录 | 立即加入

本版积分规则

Archiver|小黑屋| 蓝光电影网 |网站地图

Copyright © 2021 Comsenz Inc. Powered by 蓝光电影网

蓝光电影网

本站内容由用户自主分享和转载自互联网,转载目的在于传递更多信息,并不代表本网赞同其观点和对其真实性负责。

如有侵权、违反国家法律政策行为,请联系我们,我们会第一时间及时清除和处理!

举报反馈邮箱:[email protected]

快速回复 返回顶部 返回列表