找回密码

蓝光电影网

查看: 74|回复: 0

[剧情] 神兵特攻[国粤多音轨/简繁字幕].VR.Fighter.2021.1080p.BluRay.x264-CTRLHD 7.94GB

[复制链接]
蓝光币
7
发表于 2022-7-28 01:52:42 | 显示全部楼层 |阅读模式


◎标  题 神兵特攻
◎译  名 One More Shot
◎年  代 2021
◎产  地 中国大陆
◎类  别 行动 / 科幻
◎语  言 汉语普通话
◎上映日期 2021-09-17(中国大陆收集)
◎IMDb链接 https://www.imdb.com/title//
◎豆瓣链接 https://movie.douban.com/subject/35043230/
◎片  长 82分钟
◎导  演 陈瑛麟 Cylin.
◎编  剧 史超 Chao Shi
◎演  员 樊少皇 Siu-Wong Fan
       姜怡伊 Yiyi Jiang
       王志鹏 Zhipeng Wang
       宋梓侨 Ziqiao Song
       程润国
       陈瑛麟 Cylin.
◎简  介
  《神兵特攻》的故事发生在一个科技高度发财的未来都会。已经的出色保镳龙威落空妻子后带着受伤的女儿隐居外洋,一次见义勇救下了科技公司技术员艾米,对方约请他到公司介入新产物武装机甲的测试。口试进程中公司启用了最早辈的虚拟现实技术。在虚拟现实天下里,龙威为了拯救艾米等科研职员的生命,踏上了未知的梦乡之旅…
  1. ##### MediaInfo ######
  2. General
  3. Unique ID                                : 96566413739780959301922908677053012239 (0x48A603C8E8491F365000F2E39DD2D90F)
  4. Complete name                            : VR.Fighter.2021.1080p.BluRay.x264-CTRLHD.mkv
  5. Format                                   : Matroska
  6. Format version                           : Version 4
  7. File size                                : 7.94 GiB
  8. Duration                                 : 1 h 22 min
  9. Overall bit rate                         : 13.8 Mb/s
  10. Encoded date                             : UTC 2022-07-25 09:38:22
  11. Writing application                      : mkvmerge v68.0.0 ('The Curtain') 64-bit
  12. Writing library                          : libebml v1.4.2 + libmatroska v1.6.4
  13. Video
  14. ID                                       : 1
  15. Format                                   : AVC
  16. Format/Info                              : Advanced Video Codec
  17. Format profile                           : [email protected]
  18. Format settings                          : CABAC / 5 Ref Frames
  19. Format settings, CABAC                   : Yes
  20. Format settings, Reference frames        : 5 frames
  21. Codec ID                                 : V_MPEG4/ISO/AVC
  22. Duration                                 : 1 h 22 min
  23. Bit rate                                 : 12.7 Mb/s
  24. Width                                    : 1 920 pixels
  25. Height                                   : 816 pixels
  26. Display aspect ratio                     : 2.35:1
  27. Frame rate mode                          : Constant
  28. Frame rate                               : 25.000 FPS
  29. Color space                              : YUV
  30. Chroma subsampling                       : 4:2:0
  31. Bit depth                                : 8 bits
  32. Scan type                                : Progressive
  33. Bits/(Pixel*Frame)                       : 0.325
  34. Stream size                              : 7.31 GiB (92%)
  35. Writing library                          : x264 core 129 r2245 bc13772
  36. Encoding settings                        : cabac=1 / ref=5 / deblock=1:-3:-3 / analyse=0x3:0x133 / me=umh / subme=11 / psy=1 / psy_rd=1.05:0.05 / mixed_ref=1 / me_range=64 / chroma_me=1 / trellis=2 / 8x8dct=1 / cqm=0 / deadzone=21,11 / fast_pskip=0 / chroma_qp_offset=-3 / threads=24 / lookahead_threads=4 / sliced_threads=0 / nr=0 / decimate=1 / interlaced=0 / NTM4NzU= / bluray_compat=0 / constrained_intra=0 / bframes=10 / b_pyramid=2 / b_adapt=2 / b_bias=0 / direct=3 / weightb=1 / open_gop=0 / weightp=2 / keyint=250 / keyint_min=25 / NTM4NzU=uuDQuD2mJt9fsCf / scenecut=40 / intra_refresh=0 / rc_lookahead=60 / rc=2pass / mbtree=1 / bitrate=12711 / ratetol=1.0 / qcomp=0.60 / qpmin=0 / qpmax=69 / qpstep=4 / cplxblur=20.0 / qblur=0.5 / vbv_maxrate=40000 / vbv_bufsize=30000 / nal_hrd=none / NTM4NzU=LmsMAP37EqsCpk / ip_ratio=1.40 / aq=1:0.80
  37. Language                                 : English
  38. Default                                  : Yes
  39. Forced                                   : No
  40. Audio #1
  41. ID                                       : 2
  42. Format                                   : AC-3
  43. Format/Info                              : Audio Coding 3
  44. Commercial name                          : Dolby Digital
  45. Codec ID                                 : A_AC3
  46. Duration                                 : 1 h 22 min
  47. Bit rate mode                            : Constant
  48. Bit rate                                 : 448 kb/s
  49. Channel(s)                               : 2 channels
  50. Channel layout                           : L R
  51. Sampling rate                            : 48.0 kHz
  52. Frame rate                               : 31.250 FPS (1536 SPF)
  53. Compression mode                         : Lossy
  54. Stream size                              : 264 MiB (3%)
  55. Title                                    : 粤语
  56. Language                                 : Chinese
  57. Service kind                             : Complete Main
  58. Default                                  : Yes
  59. Forced                                   : No
  60. Audio #2
  61. ID                                       : 3
  62. Format                                   : AC-3
  63. Format/Info                              : Audio Coding 3
  64. Commercial name                          : Dolby Digital
  65. Codec ID                                 : A_AC3
  66. Duration                                 : 1 h 22 min
  67. Bit rate mode                            : Constant
  68. Bit rate                                 : 640 kb/s
  69. Channel(s)                               : 6 channels
  70. Channel layout                           : L R C LFE Ls Rs
  71. Sampling rate                            : 48.0 kHz
  72. Frame rate                               : 31.250 FPS (1536 SPF)
  73. Compression mode                         : Lossy
  74. Stream size                              : 378 MiB (5%)
  75. Title                                    : 国语
  76. Language                                 : Chinese
  77. Service kind                             : Complete Main
  78. Default                                  : Yes
  79. Forced                                   : No
  80. Text #1
  81. ID                                       : 4
  82. Format                                   : UTF-8
  83. Codec ID                                 : S_TEXT/UTF8
  84. Codec ID/Info                            : UTF-8 Plain Text
  85. Duration                                 : 1 h 18 min
  86. Bit rate                                 : 19 b/s
  87. Count of elements                        : 650
  88. Stream size                              : 11.5 KiB (0%)
  89. Title                                    : 简体
  90. Language                                 : Chinese
  91. Default                                  : Yes
  92. Forced                                   : No
  93. Text #2
  94. ID                                       : 5
  95. Format                                   : UTF-8
  96. Codec ID                                 : S_TEXT/UTF8
  97. Codec ID/Info                            : UTF-8 Plain Text
  98. Duration                                 : 1 h 18 min
  99. Bit rate                                 : 19 b/s
  100. Count of elements                        : 650
  101. Stream size                              : 11.5 KiB (0%)
  102. Title                                    : 繁体
  103. Language                                 : Chinese
  104. Default                                  : Yes
  105. Forced                                   : No
复制代码

















保举请利用qBittorrent,utorrent,transmission等标准BT软件下载!以获得最快速度。奉求保种!





回复

使用道具 举报

懒得打字嘛,点击右侧快捷回复 【右侧内容,后台自定义】
您需要登录后才可以回帖 登录 | 立即加入

本版积分规则

Archiver|小黑屋| 蓝光电影网 |网站地图

Copyright © 2021 Comsenz Inc. Powered by 蓝光电影网

蓝光电影网

本站内容由用户自主分享和转载自互联网,转载目的在于传递更多信息,并不代表本网赞同其观点和对其真实性负责。

如有侵权、违反国家法律政策行为,请联系我们,我们会第一时间及时清除和处理!

举报反馈邮箱:[email protected]

快速回复 返回顶部 返回列表