找回密码

蓝光电影网

查看: 64|回复: 0

[剧情] 平原上的夏洛克[国语配音/中文字幕].Summer.Detective.2019.1080p.BluRay.DD/5.1.x264-MOMOHD 14.30GB

[复制链接]
蓝光币
7
发表于 2022-7-28 01:52:54 | 显示全部楼层 |阅读模式


◎标  题 平原上的夏洛克
◎译  名 Rebuilding / Summer Detective
◎年  代 2019
◎产  地 中国大陆
◎类  别 剧情 / 笑剧 / 悬疑
◎语  言 汉语普通话
◎上映日期 2019-11-29(中国大陆) / 2019-07-22(FIRST青年影展)
◎IMDb评分 6.8/10 (438人评价)
◎IMDb链接 https://www.imdb.com/title/tt10488396/
◎豆瓣评分 7.8/10 (134869人评价)
◎豆瓣链接 https://movie.douban.com/subject/33400376/
◎片  长 98分钟
◎导  演 徐磊 Lei Xu
◎编  剧 徐磊 Lei Xu
◎演  员 徐朝英 Chaoying Xu
       张占义 Zhanyi Zhang
       宿树合 Shuhe Su
       张苗 Joe Zhang
       陈俞杉 Yushan Chen
       任灿
       王雪茵
       饶晓志 Xiaozhi Rao
       宋歌 Ge Song
       童凌
       郭帆 Frant Gwo
       讴歌 Ge Ou
       叶濡畅 Ruchang Ye
       郝钢 Gang Hao
       海瑞 Pino.Rea
◎标  签 农村 / 小人物 / 笑剧 / 剧情 / 中国 / FIRST青年电影展 / 中国大陆 / 2019
◎简  介
  超英翻盖新房 ,占义、树河前来帮手,没想到树河却因意外车祸入院,司机闯祸逃逸,超英和占义化身“平原侦察”,踏上了一段使人啼笑皆非的荒诞追凶之旅。
  1. ##### MediaInfo ######
  2. General
  3. Unique ID                                : 271869447882270485553707047904306421869 (0xCC8826AC222DEECD57599DA4E182606D)
  4. Complete name                            : Summer.Detective.2019.1080p.BluRay.DD+5.1.x264-MOMOHD.mkv
  5. Format                                   : Matroska
  6. Format version                           : Version 4
  7. File size                                : 14.3 GiB
  8. Duration                                 : 1 h 34 min
  9. Overall bit rate                         : 21.6 Mb/s
  10. Encoded date                             : UTC 2021-08-25 14:21:52
  11. Writing application                      : mkvmerge v60.0.0 ('Are We Copies?') 64-bit
  12. Writing library                          : libebml v1.4.2 + libmatroska v1.6.4
  13. Video
  14. ID                                       : 1
  15. Format                                   : AVC
  16. Format/Info                              : Advanced Video Codec
  17. Format profile                           : [email protected]
  18. Format settings                          : CABAC / 5 Ref Frames
  19. Format settings, CABAC                   : Yes
  20. Format settings, Reference frames        : 5 frames
  21. Codec ID                                 : V_MPEG4/ISO/AVC
  22. Duration                                 : 1 h 34 min
  23. Bit rate                                 : 20.5 Mb/s
  24. Width                                    : 1 920 pixels
  25. Height                                   : 804 pixels
  26. Display aspect ratio                     : 2.40:1
  27. Frame rate mode                          : Constant
  28. Frame rate                               : 25.000 FPS
  29. Color space                              : YUV
  30. Chroma subsampling                       : 4:2:0
  31. Bit depth                                : 8 bits
  32. Scan type                                : Progressive
  33. Bits/(Pixel*Frame)                       : 0.530
  34. Stream size                              : 13.5 GiB (95%)
  35. Writing library                          : x264 core 164 r3065 ae03d92
  36. Encoding settings                        : cabac=1 / ref=5 / deblock=1:-3:-3 / analyse=0x3:0x133 / me=umh / subme=11 / psy=1 / psy_rd=1.00:0.00 / mixed_ref=1 / me_range=32 / chroma_me=1 / trellis=2 / 8x8dct=1 / cqm=0 / deadzone=21,11 / fast_pskip=0 / chroma_qp_offset=-2 / threads=12 / lookahead_threads=3 / sliced_threads=0 / nr=0 / decimate=0 / interlaced=0 / NTM4NzU= / bluray_compat=0 / constrained_intra=0 / bframes=16 / b_pyramid=2 / b_adapt=2 / b_bias=0 / direct=3 / weightb=1 / open_gop=0 / weightp=2 / keyint=250 / keyint_min=25 / NTM4NzU=uuDQuD2mJt9fsCf / scenecut=40 / intra_refresh=0 / rc_lookahead=250 / rc=crf / mbtree=0 / crf=14.3 / qcomp=0.62 / qpmin=0 / qpmax=69 / qpstep=4 / vbv_maxrate=62500 / vbv_bufsize=78125 / crf_max=0.0 / nal_hrd=none / filler=0 / NTM4NzU=LmsMAP37EqsCpk / ip_ratio=1.30 / pb_ratio=1.20 / aq=3:0.71 / zones=608,1877,b=0.3/1880,2394,crf=13/26895,26962,crf=13/27395,27486,crf=13/38140,38296,crf=13/45198,45465,crf=13/48959,49060,crf=13/60407,61171,crf=13/64938,65025,crf=13/70556,70829,crf=13/80524,81344,crf=13/132940,133503,crf=13/133504,133888,crf=13/133889,134608,crf=13/136524,141987,b=0.3
  37. Language                                 : Chinese
  38. Default                                  : Yes
  39. Forced                                   : No
  40. Color range                              : Limited
  41. Color primaries                          : BT.709
  42. Transfer characteristics                 : BT.709
  43. Matrix coefficients                      : BT.709
  44. Audio #1
  45. ID                                       : 2
  46. Format                                   : E-AC-3
  47. Format/Info                              : Enhanced AC-3
  48. Commercial name                          : Dolby Digital Plus
  49. Codec ID                                 : A_EAC3
  50. Duration                                 : 1 h 34 min
  51. Bit rate mode                            : Constant
  52. Bit rate                                 : 1 023 kb/s
  53. Channel(s)                               : 6 channels
  54. Channel layout                           : L R C LFE Ls Rs
  55. Sampling rate                            : 48.0 kHz
  56. Frame rate                               : 93.750 FPS (512 SPF)
  57. Compression mode                         : Lossy
  58. Stream size                              : 693 MiB (5%)
  59. Language                                 : Chinese
  60. Service kind                             : Complete Main
  61. Default                                  : Yes
  62. Forced                                   : No
  63. Audio #2
  64. ID                                       : 3
  65. Format                                   : AAC LC
  66. Format/Info                              : Advanced Audio Codec Low Complexity
  67. Codec ID                                 : A_AAC-2
  68. Duration                                 : 1 h 34 min
  69. Bit rate                                 : 132 kb/s
  70. Channel(s)                               : 2 channels
  71. Channel layout                           : L R
  72. Sampling rate                            : 48.0 kHz
  73. Frame rate                               : 46.875 FPS (1024 SPF)
  74. Compression mode                         : Lossy
  75. Stream size                              : 89.6 MiB (1%)
  76. Title                                    : Commentary by director Lei Xu
  77. Language                                 : Chinese
  78. Default                                  : No
  79. Forced                                   : No
  80. Text #1
  81. ID                                       : 4
  82. Format                                   : UTF-8
  83. Codec ID                                 : S_TEXT/UTF8
  84. Codec ID/Info                            : UTF-8 Plain Text
  85. Duration                                 : 1 h 28 min
  86. Bit rate                                 : 33 b/s
  87. Count of elements                        : 961
  88. Stream size                              : 21.9 KiB (0%)
  89. Language                                 : English
  90. Default                                  : Yes
  91. Forced                                   : No
  92. Text #2
  93. ID                                       : 5
  94. Format                                   : UTF-8
  95. Codec ID                                 : S_TEXT/UTF8
  96. Codec ID/Info                            : UTF-8 Plain Text
  97. Duration                                 : 1 h 30 min
  98. Bit rate                                 : 30 b/s
  99. Count of elements                        : 987
  100. Stream size                              : 20.3 KiB (0%)
  101. Language                                 : Chinese
  102. Default                                  : No
  103. Forced                                   : No
  104. Menu
  105. 00:00:00.000                             : Chapter 01
  106. 00:06:49.120                             : Chapter 02
  107. 00:15:42.200                             : Chapter 03
  108. 00:23:39.680                             : Chapter 04
  109. 00:30:29.160                             : Chapter 05
  110. 00:43:08.040                             : Chapter 06
  111. 00:55:13.040                             : Chapter 07
  112. 01:04:49.280                             : Chapter 08
  113. 01:10:44.240                             : Chapter 09
  114. 01:15:04.840                             : Chapter 10
  115. 01:22:43.600                             : Chapter 11
  116. 01:28:37.640                             : Chapter 12
复制代码

















保举请利用qBittorrent,utorrent,transmission等标准BT软件下载!以获得最快速度。奉求保种!





回复

使用道具 举报

懒得打字嘛,点击右侧快捷回复 【右侧内容,后台自定义】
您需要登录后才可以回帖 登录 | 立即加入

本版积分规则

Archiver|小黑屋| 蓝光电影网 |网站地图

Copyright © 2021 Comsenz Inc. Powered by 蓝光电影网

蓝光电影网

本站内容由用户自主分享和转载自互联网,转载目的在于传递更多信息,并不代表本网赞同其观点和对其真实性负责。

如有侵权、违反国家法律政策行为,请联系我们,我们会第一时间及时清除和处理!

举报反馈邮箱:[email protected]

快速回复 返回顶部 返回列表