找回密码

蓝光电影网

查看: 123|回复: 2

[剧情] 王牌保镖2[简繁英字幕].Hitman's.Wife's.Bodyguard.2021.1080p.BluRay.DD.7.1.x264-TAGHD 12.36GB

[复制链接]
蓝光币
7
发表于 2022-7-28 01:53:07 | 显示全部楼层 |阅读模式


◎标  题 王牌保镳2
◎译  名 杀手妻子的保镳 / 保镳救杀手2(港) / The Hitman's Bodyguard 2
◎片  名 The Hitman's Wife's Bodyguard
◎年  代 2021
◎产  地 美国 / 英国
◎类  别 笑剧 / 行动 / 犯罪
◎语  言 英语
◎上映日期 2021-06-16(美国)
◎IMDb评分 6.1/10 (63047人评价)
◎IMDb链接 https://www.imdb.com/title/tt8385148/
◎豆瓣评分 6.3/10 (20250人评价)
◎豆瓣链接 https://movie.douban.com/subject/30216729/
◎片  长 116分钟
◎导  演 帕特里克·休斯 Patrick Hughes
◎编  剧 汤姆·奥康纳 Tom O'Connor
       布兰登·墨菲 Brandon Murphy
       菲利普·墨菲 Phillip Murphy
◎演  员 瑞安·雷诺兹 Ryan Reynolds
       塞缪尔·杰克逊 Samuel L. Jackson
       萨尔玛·海耶克 Salma Hayek
       弗兰克·格里罗 Frank Grillo
       理查德·E·格兰特 Richard E. Grant
       安东尼奥·班德拉斯 Antonio Banderas
       摩根·弗里曼 Morgan Freeman
       斯图尔特·亚历山大 Stewart Alexander
       早乙女津和雪 Tsuwayuki Saotome
       丽贝卡·弗朗特 Rebecca Front
       诺杰·赫拉尔 Noortje Herlaar
       迈克尔·戈尔 Michael Gor
       乔治·格伦 Georgie Glen
       巴里·阿茨玛 Barry Atsma
       蒂内·朱斯特拉 Tine Joustra
       加里·奥德曼 Gary Oldman
       玛丽安娜·维基尔斯卡 Mariana Vekilska
       布莱恩·卡斯佩 Brian Caspe
       丹柯·约尔丹诺夫 Danko Jordanov
       西蒙·安德鲁 Simón Andreu
       塞尔吉奥·托里科 Sergio Torrico
       布莱克·瑞特森 Blake Ritson
       汤姆·霍珀 Tom Hopper
       加布里埃拉·赖特 Gabriella Wright
       卡罗琳·古多尔 Caroline Goodall
       爱丽丝·麦克米兰 Alice McMillan
       伊万·朱里奇 Ivan Djuricic
       米尔托斯·耶罗勒曼 Miltos Yerolemou
       帕特里克·休斯 Patrick Hughes
       德拉甘·米恰诺维奇 Dragan Mićanović
       托米·梅 Tomi May
       乔纳斯·塔金顿 Jonas Talkington
       小恩佐·斯奎利诺 Enzo Squillino Jr.
       吉欧里奥·贝鲁蒂 Giulio Berruti
       鲁道夫·科萨托 Rodolfo Corsato
       卡蒙提普·克里希·阿什顿 Kamontip Krissy Ashton
       贝卡·宝陵 Bekka Bowling
       贝恩·科拉科 Bern Collaço
       内森·库珀 Nathan Cooper
       罗杰·金 Roger King
       阿德南·昆迪 Adnan Kundi
       马雷克·里奇滕博格 Marek Lichtenberg
       希滕·珀泰尔 Hiten Patel
       佩特拉·武凯利奇 Petra Vukelic
       Harry Taurasi Harry Taurasi
       Amar Bukvic Amar Bukvic
       Csilla Barath-Bastaic Csilla Barath-Bastaic
       James Maclurcan James Maclurcan
       克里斯蒂娜·坎贝尔 Christa Campbell
       博兹·大卫逊 Boaz Davidson
       瓦伦丁·迪米特洛夫 Valentin Dimitrov
       艾威·勒纳 Avi Lerner
       海蒂·乔·马克尔 Heidi Jo Markel
       艾特利·奥瓦逊 Atli Örvarsson
       特里·斯塔塞 Terry Stacey
       妮科尔·亨布拉 Nicholle Hembra
◎标  签 笑剧 / 行动 / 美国 / 犯罪 / 2021 / 电影 / 欧美 / 電影
◎简  介
  这对世上最要命的混搭-——保镳迈克尔·布莱斯和杀手大流士·金凯,再次履行一项要命使命。                                    
                                大流士频频无常更胜以往的妻子——污名昭著的国际欺骗家索尼娅·金凯迫使布莱斯出山。                                    
                                布莱斯被这俩最危险的庇护工具逼得穷途末路,三人在一个全球级的诡计中堕入窘境,很快还发现他们是一个大疯子复仇欧洲的唯一障碍。                                    
                                摩根·弗里曼也加入了这场风趣而又致命的乱局,他饰演的是——嗯,不能不看。
  1. ##### MediaInfo ######
  2. General
  3. Unique ID                                : 321676826482019183880985491948814632376 (0xF200B4086F869F7831E59550913A85B8)
  4. Complete name                            : Hitman's.Wife's.Bodyguard.2021.1080p.BluRay.DD.7.1.x264-TAGHD.mkv
  5. Format                                   : Matroska
  6. Format version                           : Version 4
  7. File size                                : 12.4 GiB
  8. Duration                                 : 1 h 56 min
  9. Overall bit rate                         : 15.2 Mb/s
  10. Encoded date                             : UTC 2022-04-23 13:28:59
  11. Writing application                      : mkvmerge v42.0.0 ('Overtime') 64-bit
  12. Writing library                          : libebml v1.3.10 + libmatroska v1.5.2
  13. Video
  14. ID                                       : 1
  15. Format                                   : AVC
  16. Format/Info                              : Advanced Video Codec
  17. Format profile                           : [email protected]
  18. Format settings                          : CABAC / 5 Ref Frames
  19. Format settings, CABAC                   : Yes
  20. Format settings, Reference frames        : 5 frames
  21. Codec ID                                 : V_MPEG4/ISO/AVC
  22. Duration                                 : 1 h 56 min
  23. Bit rate                                 : 13.4 Mb/s
  24. Width                                    : 1 920 pixels
  25. Height                                   : 804 pixels
  26. Display aspect ratio                     : 2.40:1
  27. Frame rate mode                          : Constant
  28. Frame rate                               : 23.976 (24000/1001/53875) FPS
  29. Color space                              : YUV
  30. Chroma subsampling                       : 4:2:0
  31. Bit depth                                : 8 bits
  32. Scan type                                : Progressive
  33. Bits/(Pixel*Frame)                       : 0.363
  34. Stream size                              : 10.9 GiB (88%)
  35. Writing library                          : x264 core 142 r2431+42 c69a006 tMod [[email protected]:2:0 X86_64]
  36. Encoding settings                        : cabac=1 / ref=5 / deblock=1:-3:-3 / analyse=0x3:0x113 / me=umh / subme=11 / psy=1 / fade_compensate=0.00 / psy_rd=1.05:0.00 / mixed_ref=1 / me_range=32 / chroma_me=1 / trellis=2 / 8x8dct=1 / cqm=0 / deadzone=21,11 / fast_pskip=0 / chroma_qp_offset=-2 / threads=24 / lookahead_threads=4 / sliced_threads=0 / nr=0 / decimate=0 / interlaced=0 / NTM4NzU= / bluray_compat=0 / constrained_intra=0 / fgo=0 / bframes=8 / b_pyramid=2 / b_adapt=2 / b_bias=0 / direct=3 / weightb=1 / open_gop=0 / weightp=2 / keyint=250 / keyint_min=23 / NTM4NzU=uuDQuD2mJt9fsCf / scenecut=40 / intra_refresh=0 / rc_lookahead=60 / rc=crf / mbtree=0 / crf=17.2000 / qcomp=0.60 / qpmin=0:0:0 / qpmax=69:69:69 / qpstep=4 / vbv_maxrate=62500 / vbv_bufsize=78125 / crf_max=0.0 / nal_hrd=none / filler=0 / NTM4NzU=LmsMAP37EqsCpk / ip_ratio=1.30 / pb_ratio=1.20 / aq=3:0.80 / aq-sensitivity=10.00 / aq-factor=1.00:1.00:1.00 / aq2=0 / aq3=0
  37. Default                                  : Yes
  38. Forced                                   : No
  39. Color range                              : Limited
  40. Color primaries                          : BT.709
  41. Transfer characteristics                 : BT.709
  42. Matrix coefficients                      : BT.709
  43. Audio
  44. ID                                       : 2
  45. Format                                   : E-AC-3
  46. Format/Info                              : Enhanced AC-3
  47. Commercial name                          : Dolby Digital Plus
  48. Format profile                           : Blu-ray Disc
  49. Codec ID                                 : A_EAC3
  50. Duration                                 : 1 h 56 min
  51. Bit rate mode                            : Constant
  52. Bit rate                                 : 1 536 kb/s
  53. Channel(s)                               : 8 channels
  54. Channel layout                           : L R C LFE Ls Rs Lb Rb
  55. Sampling rate                            : 48.0 kHz
  56. Frame rate                               : 31.250 FPS (1536 SPF)
  57. Compression mode                         : Lossy
  58. Stream size                              : 1.25 GiB (10%)
  59. Language                                 : English
  60. Service kind                             : Complete Main
  61. Default                                  : Yes
  62. Forced                                   : No
  63. Text #1
  64. ID                                       : 3
  65. Format                                   : PGS
  66. Muxing mode                              : zlib
  67. Codec ID                                 : S_HDMV/PGS
  68. Codec ID/Info                            : Picture based subtitle format used on BDs/HD-DVDs
  69. Duration                                 : 1 h 49 min
  70. Bit rate                                 : 54.6 kb/s
  71. Count of elements                        : 2514
  72. Stream size                              : 42.8 MiB (0%)
  73. Language                                 : English
  74. Default                                  : No
  75. Forced                                   : No
  76. Text #2
  77. ID                                       : 4
  78. Format                                   : PGS
  79. Muxing mode                              : zlib
  80. Codec ID                                 : S_HDMV/PGS
  81. Codec ID/Info                            : Picture based subtitle format used on BDs/HD-DVDs
  82. Duration                                 : 1 h 49 min
  83. Bit rate                                 : 53.0 kb/s
  84. Count of elements                        : 3980
  85. Stream size                              : 41.5 MiB (0%)
  86. Title                                    : CHS
  87. Language                                 : Chinese
  88. Default                                  : Yes
  89. Forced                                   : No
  90. Text #3
  91. ID                                       : 5
  92. Format                                   : PGS
  93. Muxing mode                              : zlib
  94. Codec ID                                 : S_HDMV/PGS
  95. Codec ID/Info                            : Picture based subtitle format used on BDs/HD-DVDs
  96. Duration                                 : 1 h 49 min
  97. Bit rate                                 : 55.0 kb/s
  98. Count of elements                        : 3980
  99. Stream size                              : 43.0 MiB (0%)
  100. Title                                    : CHT
  101. Language                                 : Chinese
  102. Default                                  : No
  103. Forced                                   : No
  104. Text #4
  105. ID                                       : 6
  106. Format                                   : PGS
  107. Muxing mode                              : zlib
  108. Codec ID                                 : S_HDMV/PGS
  109. Codec ID/Info                            : Picture based subtitle format used on BDs/HD-DVDs
  110. Duration                                 : 1 h 49 min
  111. Bit rate                                 : 48.2 kb/s
  112. Count of elements                        : 2966
  113. Stream size                              : 37.7 MiB (0%)
  114. Title                                    : CHS
  115. Language                                 : Chinese
  116. Default                                  : No
  117. Forced                                   : No
  118. Text #5
  119. ID                                       : 7
  120. Format                                   : PGS
  121. Muxing mode                              : zlib
  122. Codec ID                                 : S_HDMV/PGS
  123. Codec ID/Info                            : Picture based subtitle format used on BDs/HD-DVDs
  124. Duration                                 : 1 h 49 min
  125. Bit rate                                 : 49.1 kb/s
  126. Count of elements                        : 2966
  127. Stream size                              : 38.5 MiB (0%)
  128. Title                                    : CHT
  129. Language                                 : Chinese
  130. Default                                  : No
  131. Forced                                   : No
  132. Text #6
  133. ID                                       : 8
  134. Format                                   : PGS
  135. Muxing mode                              : zlib
  136. Codec ID                                 : S_HDMV/PGS
  137. Codec ID/Info                            : Picture based subtitle format used on BDs/HD-DVDs
  138. Duration                                 : 1 h 49 min
  139. Bit rate                                 : 79.9 kb/s
  140. Count of elements                        : 2966
  141. Stream size                              : 62.5 MiB (0%)
  142. Title                                    : CHS&ENG
  143. Language                                 : Chinese
  144. Default                                  : No
  145. Forced                                   : No
  146. Text #7
  147. ID                                       : 9
  148. Format                                   : PGS
  149. Muxing mode                              : zlib
  150. Codec ID                                 : S_HDMV/PGS
  151. Codec ID/Info                            : Picture based subtitle format used on BDs/HD-DVDs
  152. Duration                                 : 1 h 49 min
  153. Bit rate                                 : 80.9 kb/s
  154. Count of elements                        : 2966
  155. Stream size                              : 63.3 MiB (1%)
  156. Title                                    : CHT&ENG
  157. Language                                 : Chinese
  158. Default                                  : No
  159. Forced                                   : No
  160. Menu
  161. 00:00:00.000                             : en:第 01 章
  162. 00:09:14.095                             : en:第 02 章
  163. 00:19:37.093                             : en:第 03 章
  164. 00:29:26.431                             : en:第 04 章
  165. 00:36:33.650                             : en:第 05 章
  166. 00:47:14.540                             : en:第 06 章
  167. 00:56:26.300                             : en:第 07 章
  168. 01:10:33.312                             : en:第 08 章
  169. 01:20:05.801                             : en:第 09 章
  170. 01:29:03.004                             : en:第 10 章
  171. 01:35:24.928                             : en:第 11 章
  172. 01:48:43.183                             : en:第 12 章
复制代码

















保举请利用qBittorrent,utorrent,transmission等标准BT软件下载!以获得最快速度。奉求保种!





[url=https://www.4k1080.com/data/attachment/forum/王牌保镳2[简繁英字幕].Hitman's.Wife's.Bodyguard.2021.1080p.BluRay.DD.7.torrent]王牌保镳2[简繁英字幕].Hitman's.Wife's.Bodyguard.2021.1080p.BluRay.DD.7.1.x264-TAGHD 12.36GB[/url]
回复

使用道具 举报

蓝光币
81
发表于 2022-7-28 06:54:43 | 显示全部楼层
楼主发贴辛苦了,谢谢楼主分享!我觉得蓝光电影网是注册对了!
回复 支持 反对

使用道具 举报

蓝光币
39
发表于 2022-7-28 23:50:19 | 显示全部楼层

既然你诚信诚意的推荐了,那我就勉为其难的看看吧!蓝光电影网不走平凡路。
回复 支持 反对

使用道具 举报

懒得打字嘛,点击右侧快捷回复 【右侧内容,后台自定义】
您需要登录后才可以回帖 登录 | 立即加入

本版积分规则

Archiver|小黑屋| 蓝光电影网 |网站地图

Copyright © 2021 Comsenz Inc. Powered by 蓝光电影网

蓝光电影网

本站内容由用户自主分享和转载自互联网,转载目的在于传递更多信息,并不代表本网赞同其观点和对其真实性负责。

如有侵权、违反国家法律政策行为,请联系我们,我们会第一时间及时清除和处理!

举报反馈邮箱:[email protected]

快速回复 返回顶部 返回列表