找回密码

蓝光电影网

查看: 119|回复: 0

[其他] 乡村侦探 The.Village.Detective.a.song.cycle.2021.1080p.BluRay.x264.DD5.1-HANDJOB 6.88GB

[复制链接]
蓝光币
1020
发表于 2022-7-28 08:21:38 | 显示全部楼层 |阅读模式


◎标  题 村落侦察
◎片  名 The Village Detective: a song cycle
◎年  代 2021
◎产  地 美国
◎类  别 记载片
◎上映日期 2021-04-27(莫斯科国际电影节)
◎IMDb评分 6.8/10 (46人评价)
◎IMDb链接 https://www.imdb.com/title/tt9463622/
◎豆瓣链接 https://movie.douban.com/subject/34938615/
◎片  长 81分钟
◎导  演 比尔·莫里森 Bill Morrison
◎编  剧 比尔·莫里森 Bill Morrison
◎简  介

  The Village Detective examines the historiography of Russian actor Mikhail Zharov's work on film, a career that included 70 film titles and numerous roles on stage, and spanned the entire Soviet era."
  1. Video
  2. ID                                       : 1
  3. Format                                   : AVC
  4. Format/Info                              : Advanced Video Codec
  5. Format profile                           : [email protected]
  6. Format settings                          : CABAC / 4 Ref Frames
  7. Format settings, CABAC                   : Yes
  8. Format settings, Reference frames        : 4 frames
  9. Codec ID                                 : V_MPEG4/ISO/AVC
  10. Duration                                 : 1 h 20 min
  11. Bit rate                                 : 11.5 Mb/s
  12. Width                                    : 1 920 pixels
  13. Height                                   : 1 078 pixels
  14. Display aspect ratio                     : 16:9
  15. Frame rate mode                          : Constant
  16. Frame rate                               : 23.976 (24000/1001/189150) FPS
  17. Color space                              : YUV
  18. Chroma subsampling                       : 4:2:0
  19. Bit depth                                : 8 bits
  20. Scan type                                : Progressive
  21. Bits/(Pixel*Frame)                       : 0.233
  22. Stream size                              : 6.52 GiB (95%)
  23. Writing library                          : x264 core 164 r3065 ae03d92
  24. Encoding settings                        : cabac=1 / ref=4 / deblock=1:-3:-3 / analyse=0x3:0x133 / me=umh / subme=10 / psy=1 / psy_rd=1.00:0.00 / mixed_ref=1 / me_range=32 / chroma_me=1 / trellis=2 / 8x8dct=1 / cqm=0 / deadzone=21,11 / fast_pskip=0 / chroma_qp_offset=-2 / threads=34 / lookahead_threads=8 / sliced_threads=0 / nr=0 / decimate=0 / interlaced=0 / bluray_compat=0 / constrained_intra=0 / bframes=16 / b_pyramid=2 / b_adapt=2 / b_bias=0 / direct=3 / weightb=1 / open_gop=0 / weightp=2 / keyint=240 / keyint_min=24 / scenecut=40 / intra_refresh=0 / rc_lookahead=60 / rc=crf / mbtree=0 / crf=20.2 / qcomp=0.60 / qpmin=0 / qpmax=69 / qpstep=4 / vbv_maxrate=62500 / vbv_bufsize=78125 / crf_max=0.0 / nal_hrd=none / filler=0 / ip_ratio=1.40 / pb_ratio=1.30 / aq=2:1.00
  25. Default                                  : Yes
  26. Forced                                   : No
  27. Color range                              : Limited
  28. Color primaries                          : BT.709
  29. Transfer characteristics                 : BT.709
  30. Matrix coefficients                      : BT.709
  31. Audio
  32. ID                                       : 2
  33. Format                                   : AC-3
  34. Format/Info                              : Audio Coding 3
  35. Commercial name                          : Dolby Digital
  36. Codec ID                                 : A_AC3
  37. Duration                                 : 1 h 20 min
  38. Bit rate mode                            : Constant
  39. Bit rate                                 : 640 kb/s
  40. Channel(s)                               : 6 channels
  41. Channel layout                           : L R C LFE Ls Rs
  42. Sampling rate                            : 48.0 kHz
  43. Frame rate                               : 31.250 FPS (1536 SPF)
  44. Compression mode                         : Lossy
  45. Stream size                              : 370 MiB (5%)
  46. Title                                    : Russian and English
  47. Language                                 : English
  48. Service kind                             : Complete Main
  49. Default                                  : Yes
  50. Forced                                   : No
  51. Text
  52. ID                                       : 3
  53. Format                                   : UTF-8
  54. Codec ID                                 : S_TEXT/UTF8
  55. Codec ID/Info                            : UTF-8 Plain Text
  56. Duration                                 : 1 h 20 min
  57. Bit rate                                 : 8 b/s
  58. Frame rate                               : 0.040 FPS
  59. Count of elements                        : 192
  60. Stream size                              : 5.01 KiB (0%)
  61. Title                                    : SDH
  62. Language                                 : English
  63. Default                                  : No
  64. Forced                                   : No
  65. Menu
  66. 00:00:00.000                             : :Chapter 1
  67. 00:07:36.873                             : :Chapter 2
  68. 00:16:56.140                             : :Chapter 3
  69. 00:26:03.854                             : :Chapter 4
  70. 00:37:31.666                             : :Chapter 5
  71. 00:45:37.902                             : :Chapter 6
  72. 00:54:31.727                             : :Chapter 7
  73. 01:01:31.271                             : :Chapter 8
  74. 01:08:04.956                             : :Chapter 9
  75. 01:16:21.410                             : :Chapter 10
复制代码





                                       
                                       

                                       
                                       
                                       




回复

使用道具 举报

懒得打字嘛,点击右侧快捷回复 【右侧内容,后台自定义】
您需要登录后才可以回帖 登录 | 立即加入

本版积分规则

Archiver|小黑屋| 蓝光电影网 |网站地图

Copyright © 2021 Comsenz Inc. Powered by 蓝光电影网

蓝光电影网

本站内容由用户自主分享和转载自互联网,转载目的在于传递更多信息,并不代表本网赞同其观点和对其真实性负责。

如有侵权、违反国家法律政策行为,请联系我们,我们会第一时间及时清除和处理!

举报反馈邮箱:[email protected]

快速回复 返回顶部 返回列表