找回密码

蓝光电影网

查看: 43|回复: 0

[动作] 红星战将 Red.Mob.1992.RUSSIAN.1080p.BluRay.x264-WATCHABLE 9.50GB

[复制链接]
蓝光币
886
发表于 2022-7-28 08:24:28 | 显示全部楼层 |阅读模式


◎标  题 红星战将
◎译  名 RED MOB
◎片  名 Chtoby vyzhit
◎年  代 1993
◎产  地 俄罗斯
◎类  别 行动
◎语  言 俄语
◎上映日期 1993
◎IMDb评分 5.5/10 (119人评价)
◎IMDb链接 https://www.imdb.com/title/tt0106564/
◎豆瓣链接 https://movie.douban.com/subject/5112491/
◎片  长 112分钟
◎导  演 弗谢沃罗德·普洛特金 Vsevolod Plotkin
◎编  剧 弗谢沃罗德·普洛特金 Vsevolod Plotkin
◎演  员 弗拉基米尔·缅绍夫 Vladimir Menshov
       Aleksandr Rozenbaum Aleksandr Rozenbaum
       Yuri Gorobets Yuri Gorobets
       尼古拉·特罗菲莫夫 Nikolai Trofimov
       穆拉德·阿利耶夫 Murad Aliyev
◎简  介

  欧力是个退休将领,他跑到山上的练习营队,他的儿子尤拉从外洋返来看他,顺便度个夏令营,却很不习惯营队的生活,适值碰上跨国贩毒案的头子对欧力穷追不舍,希望他出马互助,屡遭拒绝,只好想出绑架他儿子的计谋,从而激发了一场暴乱
  1. Video
  2. ID                                       : 1
  3. Format                                   : AVC
  4. Format/Info                              : Advanced Video Codec
  5. Format profile                           : [email protected]
  6. Format settings                          : CABAC / 4 Ref Frames
  7. Format settings, CABAC                   : Yes
  8. Format settings, Reference frames        : 4 frames
  9. Codec ID                                 : V_MPEG4/ISO/AVC
  10. Duration                                 : 1 h 50 min
  11. Bit rate                                 : 12.2 Mb/s
  12. Width                                    : 1 920 pixels
  13. Height                                   : 1 040 pixels
  14. Display aspect ratio                     : 1.85:1
  15. Frame rate mode                          : Constant
  16. Frame rate                               : 23.976 (24000/1001/189150) FPS
  17. Color space                              : YUV
  18. Chroma subsampling                       : 4:2:0
  19. Bit depth                                : 8 bits
  20. Scan type                                : Progressive
  21. Bits/(Pixel*Frame)                       : 0.254
  22. Stream size                              : 9.41 GiB (99%)
  23. Writing library                          : x264 core 164 r3095 baee400
  24. Encoding settings                        : cabac=1 / ref=4 / deblock=1:-3:-3 / analyse=0x3:0x133 / me=umh / subme=9 / psy=1 / psy_rd=1.00:0.00 / mixed_ref=1 / me_range=16 / chroma_me=1 / trellis=2 / 8x8dct=1 / cqm=0 / deadzone=21,11 / fast_pskip=0 / chroma_qp_offset=-2 / threads=24 / lookahead_threads=2 / sliced_threads=0 / nr=0 / decimate=0 / interlaced=0 / bluray_compat=0 / constrained_intra=0 / bframes=3 / b_pyramid=2 / b_adapt=2 / b_bias=0 / direct=1 / weightb=1 / open_gop=0 / weightp=2 / keyint=240 / keyint_min=23 / scenecut=40 / intra_refresh=0 / rc_lookahead=60 / rc=crf / mbtree=0 / crf=22.5 / qcomp=0.60 / qpmin=0 / qpmax=69 / qpstep=4 / vbv_maxrate=62500 / vbv_bufsize=78125 / crf_max=0.0 / nal_hrd=none / filler=0 / ip_ratio=1.40 / pb_ratio=1.30 / aq=3:0.70
  25. Default                                  : Yes
  26. Forced                                   : No
  27. Color range                              : Limited
  28. Matrix coefficients                      : BT.709
  29. Audio
  30. ID                                       : 2
  31. Format                                   : AC-3
  32. Format/Info                              : Audio Coding 3
  33. Commercial name                          : Dolby Digital
  34. Codec ID                                 : A_AC3
  35. Duration                                 : 1 h 50 min
  36. Bit rate mode                            : Constant
  37. Bit rate                                 : 96.0 kb/s
  38. Channel(s)                               : 1 channel
  39. Channel layout                           : C
  40. Sampling rate                            : 48.0 kHz
  41. Frame rate                               : 31.250 FPS (1536 SPF)
  42. Compression mode                         : Lossy
  43. Stream size                              : 76.2 MiB (1%)
  44. Language                                 : Russian
  45. Service kind                             : Complete Main
  46. Default                                  : Yes
  47. Forced                                   : No
  48. Text #1
  49. ID                                       : 3
  50. Format                                   : UTF-8
  51. Codec ID                                 : S_TEXT/UTF8
  52. Codec ID/Info                            : UTF-8 Plain Text
  53. Duration                                 : 1 h 47 min
  54. Bit rate                                 : 38 b/s
  55. Frame rate                               : 0.208 FPS
  56. Count of elements                        : 1348
  57. Stream size                              : 30.5 KiB (0%)
  58. Title                                    : English Full Subtitles
  59. Language                                 : English
  60. Default                                  : Yes
  61. Forced                                   : Yes
  62. Text #2
  63. ID                                       : 4
  64. Format                                   : PGS
  65. Muxing mode                              : zlib
  66. Codec ID                                 : S_HDMV/PGS
  67. Codec ID/Info                            : Picture based subtitle format used on BDs/HD-DVDs
  68. Duration                                 : 1 h 48 min
  69. Bit rate                                 : 25.0 kb/s
  70. Frame rate                               : 0.415 FPS
  71. Count of elements                        : 2697
  72. Stream size                              : 19.3 MiB (0%)
  73. Title                                    : English Full Subtitles
  74. Language                                 : English
  75. Default                                  : No
  76. Forced                                   : No
  77. Text #3
  78. ID                                       : 5
  79. Format                                   : PGS
  80. Muxing mode                              : zlib
  81. Codec ID                                 : S_HDMV/PGS
  82. Codec ID/Info                            : Picture based subtitle format used on BDs/HD-DVDs
  83. Duration                                 : 1 h 48 min
  84. Bit rate                                 : 23.5 kb/s
  85. Frame rate                               : 0.435 FPS
  86. Count of elements                        : 2825
  87. Stream size                              : 18.2 MiB (0%)
  88. Title                                    : Russian Full Subtitles
  89. Language                                 : Russian
  90. Default                                  : No
  91. Forced                                   : No
  92. Menu
  93. 00:00:00.000                             : en:Chapter 01
  94. 00:20:10.209                             : en:Chapter 02
  95. 00:39:55.393                             : en:Chapter 03
  96. 01:00:07.604                             : en:Chapter 04
  97. 01:21:32.888                             : en:Chapter 05
  98. 01:38:18.893                             : en:Chapter 06
复制代码







                                       
                                       

                                       
                                       
                                       




回复

使用道具 举报

懒得打字嘛,点击右侧快捷回复 【右侧内容,后台自定义】
您需要登录后才可以回帖 登录 | 立即加入

本版积分规则

Archiver|小黑屋| 蓝光电影网 |网站地图

Copyright © 2021 Comsenz Inc. Powered by 蓝光电影网

蓝光电影网

本站内容由用户自主分享和转载自互联网,转载目的在于传递更多信息,并不代表本网赞同其观点和对其真实性负责。

如有侵权、违反国家法律政策行为,请联系我们,我们会第一时间及时清除和处理!

举报反馈邮箱:[email protected]

快速回复 返回顶部 返回列表