找回密码

蓝光电影网

查看: 78|回复: 1

[动作] 红星战将 Red.Mob.1992.DUBBED.EXTENDED.1080p.BluRay.x264-WATCHABLE 13.14GB

[复制链接]
蓝光币
886
发表于 2022-7-28 08:25:01 | 显示全部楼层 |阅读模式


◎标  题 红星战将
◎译  名 RED MOB
◎片  名 Chtoby vyzhit
◎年  代 1993
◎产  地 俄罗斯
◎类  别 行动
◎语  言 俄语
◎上映日期 1993
◎IMDb评分 5.5/10 (119人评价)
◎IMDb链接 https://www.imdb.com/title/tt0106564/
◎豆瓣链接 https://movie.douban.com/subject/5112491/
◎片  长 112分钟
◎导  演 弗谢沃罗德·普洛特金 Vsevolod Plotkin
◎编  剧 弗谢沃罗德·普洛特金 Vsevolod Plotkin
◎演  员 弗拉基米尔·缅绍夫 Vladimir Menshov
       Aleksandr Rozenbaum Aleksandr Rozenbaum
       Yuri Gorobets Yuri Gorobets
       尼古拉·特罗菲莫夫 Nikolai Trofimov
       穆拉德·阿利耶夫 Murad Aliyev
◎简  介

  欧力是个退休将领,他跑到山上的练习营队,他的儿子尤拉从外洋返来看他,顺便度个夏令营,却很不习惯营队的生活,适值碰上跨国贩毒案的头子对欧力穷追不舍,希望他出马互助,屡遭拒绝,只好想出绑架他儿子的计谋,从而激发了一场暴乱
  1. Video
  2. ID                                       : 1
  3. Format                                   : AVC
  4. Format/Info                              : Advanced Video Codec
  5. Format profile                           : [email protected]
  6. Format settings                          : CABAC / 4 Ref Frames
  7. Format settings, CABAC                   : Yes
  8. Format settings, Reference frames        : 4 frames
  9. Codec ID                                 : V_MPEG4/ISO/AVC
  10. Duration                                 : 1 h 53 min
  11. Bit rate                                 : 15.0 Mb/s
  12. Width                                    : 1 920 pixels
  13. Height                                   : 1 040 pixels
  14. Display aspect ratio                     : 1.85:1
  15. Frame rate mode                          : Constant
  16. Frame rate                               : 23.976 (24000/1001/189150) FPS
  17. Color space                              : YUV
  18. Chroma subsampling                       : 4:2:0
  19. Bit depth                                : 8 bits
  20. Scan type                                : Progressive
  21. Bits/(Pixel*Frame)                       : 0.314
  22. Stream size                              : 11.9 GiB (91%)
  23. Writing library                          : x264 core 164 r3095 baee400
  24. Encoding settings                        : cabac=1 / ref=4 / deblock=1:-3:-3 / analyse=0x3:0x133 / me=umh / subme=9 / psy=1 / psy_rd=1.00:0.00 / mixed_ref=1 / me_range=16 / chroma_me=1 / trellis=2 / 8x8dct=1 / cqm=0 / deadzone=21,11 / fast_pskip=0 / chroma_qp_offset=-2 / threads=24 / lookahead_threads=2 / sliced_threads=0 / nr=0 / decimate=0 / interlaced=0 / bluray_compat=0 / constrained_intra=0 / bframes=3 / b_pyramid=2 / b_adapt=2 / b_bias=0 / direct=1 / weightb=1 / open_gop=0 / weightp=2 / keyint=240 / keyint_min=23 / scenecut=40 / intra_refresh=0 / rc_lookahead=60 / rc=crf / mbtree=0 / crf=21.5 / qcomp=0.60 / qpmin=0 / qpmax=69 / qpstep=4 / vbv_maxrate=62500 / vbv_bufsize=78125 / crf_max=0.0 / nal_hrd=none / filler=0 / ip_ratio=1.40 / pb_ratio=1.30 / aq=3:0.70
  25. Default                                  : Yes
  26. Forced                                   : No
  27. Color range                              : Limited
  28. Matrix coefficients                      : BT.709
  29. Audio
  30. ID                                       : 2
  31. Format                                   : FLAC
  32. Format/Info                              : Free Lossless Audio Codec
  33. Codec ID                                 : A_FLAC
  34. Duration                                 : 1 h 53 min
  35. Bit rate mode                            : Variable
  36. Bit rate                                 : 1 512 kb/s
  37. Channel(s)                               : 2 channels
  38. Channel layout                           : L R
  39. Sampling rate                            : 48.0 kHz
  40. Frame rate                               : 11.719 FPS (4096 SPF)
  41. Bit depth                                : 24 bits
  42. Compression mode                         : Lossless
  43. Stream size                              : 1.20 GiB (9%)
  44. Writing library                          : libFLAC 1.3.3 (UTC 2019-08-04)
  45. Language                                 : English
  46. Default                                  : Yes
  47. Forced                                   : No
  48. Text #1
  49. ID                                       : 3
  50. Format                                   : UTF-8
  51. Codec ID                                 : S_TEXT/UTF8
  52. Codec ID/Info                            : UTF-8 Plain Text
  53. Duration                                 : 1 h 53 min
  54. Bit rate                                 : 47 b/s
  55. Frame rate                               : 0.251 FPS
  56. Count of elements                        : 1703
  57. Stream size                              : 39.5 KiB (0%)
  58. Title                                    : English Full Subtitles
  59. Language                                 : English
  60. Default                                  : No
  61. Forced                                   : No
  62. Text #2
  63. ID                                       : 4
  64. Format                                   : PGS
  65. Muxing mode                              : zlib
  66. Codec ID                                 : S_HDMV/PGS
  67. Codec ID/Info                            : Picture based subtitle format used on BDs/HD-DVDs
  68. Duration                                 : 1 h 53 min
  69. Bit rate                                 : 31.0 kb/s
  70. Frame rate                               : 0.501 FPS
  71. Count of elements                        : 3407
  72. Stream size                              : 25.2 MiB (0%)
  73. Title                                    : English Full Subtitles
  74. Language                                 : English
  75. Default                                  : No
  76. Forced                                   : No
  77. Menu
  78. 00:00:00.000                             : en:Chapter 01
  79. 00:20:09.208                             : en:Chapter 02
  80. 00:39:56.394                             : en:Chapter 03
  81. 00:59:58.595                             : en:Chapter 04
  82. 01:22:41.957                             : en:Chapter 05
  83. 01:39:21.956                             : en:Chapter 06
复制代码






                                       
                                       

                                       
                                       
                                       




回复

使用道具 举报

蓝光币
240
发表于 2022-7-28 20:47:01 | 显示全部楼层

楼主太厉害了!楼主,电影应该很好看我觉得蓝光电影网真是个好地方!
回复 支持 反对

使用道具 举报

懒得打字嘛,点击右侧快捷回复 【右侧内容,后台自定义】
您需要登录后才可以回帖 登录 | 立即加入

本版积分规则

Archiver|小黑屋| 蓝光电影网 |网站地图

Copyright © 2021 Comsenz Inc. Powered by 蓝光电影网

蓝光电影网

本站内容由用户自主分享和转载自互联网,转载目的在于传递更多信息,并不代表本网赞同其观点和对其真实性负责。

如有侵权、违反国家法律政策行为,请联系我们,我们会第一时间及时清除和处理!

举报反馈邮箱:[email protected]

快速回复 返回顶部 返回列表