找回密码

蓝光电影网

查看: 93|回复: 1

[动作] 拉尼娜之战 Attack.Of.La.Nina.2011.1080p.BluRay.x264.FLAC.2.0-HANDJOB 6.29GB

[复制链接]
蓝光币
886
发表于 2022-7-28 08:30:48 | 显示全部楼层 |阅读模式


◎标  题 拉尼娜之战
◎译  名 滑在最深冬 / 进击的女孩
◎片  名 Attack of La Niña
◎年  代 2011
◎产  地 美国
◎类  别 行动 / 记载片 / 音乐 / 活动
◎语  言 英语
◎上映日期 2011(美国)
◎IMDb评分 7.7/10 (75人评价)
◎IMDb链接 https://www.imdb.com/title/tt2521086/
◎豆瓣链接 https://movie.douban.com/subject/34961533/
◎片  长 73分钟
◎简  介

  MSP Films chronicles the deepest North American winter in recent history. "Attack of La Nina" showcases the talents of today's best skiers in a journey through the snowiest winter of their lives.                                    
                                MSP 电影工作室用记录下来有史以来北美最严寒的冬季.   滑在最深冬展现了现今最好的滑雪者若何度过了他们有生以来的最合适滑雪的冬季.
  1. Video
  2. ID                                       : 1
  3. Format                                   : AVC
  4. Format/Info                              : Advanced Video Codec
  5. Format profile                           : [email protected]
  6. Format settings                          : CABAC / 4 Ref Frames
  7. Format settings, CABAC                   : Yes
  8. Format settings, Reference frames        : 4 frames
  9. Codec ID                                 : V_MPEG4/ISO/AVC
  10. Duration                                 : 1 h 13 min
  11. Bit rate                                 : 11.8 Mb/s
  12. Width                                    : 1 912 pixels
  13. Height                                   : 1 080 pixels
  14. Display aspect ratio                     : 16:9
  15. Frame rate mode                          : Constant
  16. Frame rate                               : 23.976 (24000/1001/189150) FPS
  17. Color space                              : YUV
  18. Chroma subsampling                       : 4:2:0
  19. Bit depth                                : 8 bits
  20. Scan type                                : Progressive
  21. Bits/(Pixel*Frame)                       : 0.238
  22. Stream size                              : 6.08 GiB (97%)
  23. Writing library                          : x264 core 164 r3065 ae03d92
  24. Encoding settings                        : cabac=1 / ref=4 / deblock=1:-3:-3 / analyse=0x3:0x133 / me=umh / subme=10 / psy=1 / psy_rd=1.00:0.00 / mixed_ref=1 / me_range=32 / chroma_me=1 / trellis=2 / 8x8dct=1 / cqm=0 / deadzone=21,11 / fast_pskip=0 / chroma_qp_offset=-2 / threads=34 / lookahead_threads=8 / sliced_threads=0 / nr=0 / decimate=0 / interlaced=0 / bluray_compat=0 / constrained_intra=0 / bframes=16 / b_pyramid=2 / b_adapt=2 / b_bias=0 / direct=3 / weightb=1 / open_gop=0 / weightp=2 / keyint=240 / keyint_min=24 / scenecut=40 / intra_refresh=0 / rc_lookahead=60 / rc=crf / mbtree=0 / crf=21.2 / qcomp=0.60 / qpmin=0 / qpmax=69 / qpstep=4 / vbv_maxrate=62500 / vbv_bufsize=78125 / crf_max=0.0 / nal_hrd=none / filler=0 / ip_ratio=1.40 / pb_ratio=1.30 / aq=2:1.00
  25. Default                                  : Yes
  26. Forced                                   : No
  27. Color range                              : Limited
  28. Color primaries                          : BT.709
  29. Transfer characteristics                 : BT.709
  30. Matrix coefficients                      : BT.709
  31. Audio
  32. ID                                       : 2
  33. Format                                   : FLAC
  34. Format/Info                              : Free Lossless Audio Codec
  35. Codec ID                                 : A_FLAC
  36. Duration                                 : 1 h 13 min
  37. Bit rate mode                            : Variable
  38. Bit rate                                 : 407 kb/s
  39. Channel(s)                               : 2 channels
  40. Channel layout                           : L R
  41. Sampling rate                            : 48.0 kHz
  42. Frame rate                               : 11.719 FPS (4096 SPF)
  43. Bit depth                                : 16 bits
  44. Compression mode                         : Lossless
  45. Stream size                              : 215 MiB (3%)
  46. Writing library                          : libFLAC 1.2.1 (UTC 2007-09-17)
  47. Language                                 : English
  48. Default                                  : Yes
  49. Forced                                   : No
  50. Menu
  51. 00:00:00.000                             : en:Opening
  52. 00:01:46.648                             : en:Intro
  53. 00:04:29.186                             : en:Whistler/Sean Pettit
  54. 00:13:37.108                             : en:Golden Alpine Holidays
  55. 00:23:23.819                             : en:Park Jumps
  56. 00:28:07.728                             : en:Selkirk Wilderness Skiing
  57. 00:32:55.348                             : en:Colby West
  58. 00:37:02.220                             : en:Silverton
  59. 00:42:26.836                             : en:Chatter Creek
  60. 00:49:39.768                             : en:Alyeska
  61. 00:53:46.557                             : en:Meager
  62. 01:03:13.581                             : en:Terrace
  63. 01:10:54.292                             : en:Closing Credits
复制代码







                                       
                                       

                                       
                                       
                                       




回复

使用道具 举报

蓝光币
79
发表于 2022-7-28 15:44:55 | 显示全部楼层

楼主太厉害了!楼主,电影应该很好看我觉得蓝光电影网真是个好地方!
回复 支持 反对

使用道具 举报

懒得打字嘛,点击右侧快捷回复 【右侧内容,后台自定义】
您需要登录后才可以回帖 登录 | 立即加入

本版积分规则

Archiver|小黑屋| 蓝光电影网 |网站地图

Copyright © 2021 Comsenz Inc. Powered by 蓝光电影网

蓝光电影网

本站内容由用户自主分享和转载自互联网,转载目的在于传递更多信息,并不代表本网赞同其观点和对其真实性负责。

如有侵权、违反国家法律政策行为,请联系我们,我们会第一时间及时清除和处理!

举报反馈邮箱:[email protected]

快速回复 返回顶部 返回列表