找回密码

蓝光电影网

查看: 72|回复: 0

[剧情] 至高罪行 Betrayed.2020.NORWEGIAN.1080p.BluRay.x264.DD5.1-HANDJOB 9.85GB

[复制链接]
蓝光币
886
发表于 2022-7-28 08:30:12 | 显示全部楼层 |阅读模式


◎标  题 至高罪行
◎译  名 Betrayed
◎片  名 Den største forbrytelsen
◎年  代 2020
◎产  地 挪威
◎类  别 剧情 / 战争
◎语  言 挪威语
◎IMDb评分 7.2/10 (1369人评价)
◎IMDb链接 https://www.imdb.com/title/tt11390442/
◎豆瓣链接 https://movie.douban.com/subject/34923303/
◎导  演 埃里克·斯文森 Eirik Svensson
◎编  剧 哈拉尔·罗斯诺瑙·艾格 Harald Rosenløw-Eeg
       拉尔斯·古默斯塔 Lars Gudmestad
◎演  员 雅各布·奥福特布罗 Jakob Oftebro
       西莉亚·史都斯坦 Silje Storstein
       卡尔·马丁·厄格斯玻 Carl Martin Eggesbø
       米凯利斯·库佐吉亚纳基斯 Michalis Koutsogiannakis
       尼克莱·克莱夫·布洛奇 Nicolai Cleve Broch
       克里斯汀·库亚斯·托普 Kristine Kujath Thorp
◎简  介

  On November 26, 1942, hundreds of Jews were picked up by the Norwegian police in the middle of the night and led aboard the German cargo ship “SS DONAU” en route to Auschwitz. In the midst of this chaos, we meet the Braude family, an ordinary Norwegian working class family who had lived in safety in Oslo until these fateful days
  1. Video
  2. ID                                       : 1
  3. Format                                   : AVC
  4. Format/Info                              : Advanced Video Codec
  5. Format profile                           : [email protected]
  6. Format settings                          : CABAC / 4 Ref Frames
  7. Format settings, CABAC                   : Yes
  8. Format settings, Reference frames        : 4 frames
  9. Codec ID                                 : V_MPEG4/ISO/AVC
  10. Duration                                 : 2 h 6 min
  11. Bit rate                                 : 10.5 Mb/s
  12. Width                                    : 1 920 pixels
  13. Height                                   : 1 036 pixels
  14. Display aspect ratio                     : 1.85:1
  15. Frame rate mode                          : Constant
  16. Frame rate                               : 24.000 FPS
  17. Color space                              : YUV
  18. Chroma subsampling                       : 4:2:0
  19. Bit depth                                : 8 bits
  20. Scan type                                : Progressive
  21. Bits/(Pixel*Frame)                       : 0.220
  22. Stream size                              : 9.27 GiB (94%)
  23. Writing library                          : x264 core 164 r3065 ae03d92
  24. Encoding settings                        : cabac=1 / ref=4 / deblock=1:-3:-3 / analyse=0x3:0x133 / me=umh / subme=10 / psy=1 / psy_rd=1.00:0.00 / mixed_ref=1 / me_range=32 / chroma_me=1 / trellis=2 / 8x8dct=1 / cqm=0 / deadzone=21,11 / fast_pskip=0 / chroma_qp_offset=-2 / threads=18 / lookahead_threads=4 / sliced_threads=0 / nr=0 / decimate=0 / interlaced=0 / bluray_compat=0 / constrained_intra=0 / bframes=16 / b_pyramid=2 / b_adapt=2 / b_bias=0 / direct=3 / weightb=1 / open_gop=0 / weightp=2 / keyint=240 / keyint_min=24 / scenecut=40 / intra_refresh=0 / rc_lookahead=60 / rc=crf / mbtree=0 / crf=20.0 / qcomp=0.60 / qpmin=0 / qpmax=69 / qpstep=4 / vbv_maxrate=62500 / vbv_bufsize=78125 / crf_max=0.0 / nal_hrd=none / filler=0 / ip_ratio=1.40 / pb_ratio=1.30 / aq=2:1.00
  25. Default                                  : Yes
  26. Forced                                   : No
  27. Color range                              : Limited
  28. Color primaries                          : BT.709
  29. Transfer characteristics                 : BT.709
  30. Matrix coefficients                      : BT.709
  31. Audio
  32. ID                                       : 2
  33. Format                                   : AC-3
  34. Format/Info                              : Audio Coding 3
  35. Commercial name                          : Dolby Digital
  36. Codec ID                                 : A_AC3
  37. Duration                                 : 2 h 6 min
  38. Bit rate mode                            : Constant
  39. Bit rate                                 : 640 kb/s
  40. Channel(s)                               : 6 channels
  41. Channel layout                           : L R C LFE Ls Rs
  42. Sampling rate                            : 48.0 kHz
  43. Frame rate                               : 31.250 FPS (1536 SPF)
  44. Compression mode                         : Lossy
  45. Stream size                              : 579 MiB (6%)
  46. Language                                 : Norwegian
  47. Service kind                             : Complete Main
  48. Default                                  : Yes
  49. Forced                                   : No
  50. Text #1
  51. ID                                       : 3
  52. Format                                   : UTF-8
  53. Codec ID                                 : S_TEXT/UTF8
  54. Codec ID/Info                            : UTF-8 Plain Text
  55. Duration                                 : 1 h 57 min
  56. Bit rate                                 : 28 b/s
  57. Frame rate                               : 0.138 FPS
  58. Count of elements                        : 976
  59. Stream size                              : 24.8 KiB (0%)
  60. Language                                 : English
  61. Default                                  : Yes
  62. Forced                                   : No
  63. Text #2
  64. ID                                       : 4
  65. Format                                   : PGS
  66. Muxing mode                              : zlib
  67. Codec ID                                 : S_HDMV/PGS
  68. Codec ID/Info                            : Picture based subtitle format used on BDs/HD-DVDs
  69. Duration                                 : 2 h 4 min
  70. Bit rate                                 : 15.3 kb/s
  71. Frame rate                               : 0.213 FPS
  72. Count of elements                        : 1588
  73. Stream size                              : 13.5 MiB (0%)
  74. Language                                 : Norwegian
  75. Default                                  : No
  76. Forced                                   : No
  77. Text #3
  78. ID                                       : 5
  79. Format                                   : PGS
  80. Muxing mode                              : zlib
  81. Codec ID                                 : S_HDMV/PGS
  82. Codec ID/Info                            : Picture based subtitle format used on BDs/HD-DVDs
  83. Duration                                 : 2 h 4 min
  84. Bit rate                                 : 15.6 kb/s
  85. Frame rate                               : 0.220 FPS
  86. Count of elements                        : 1636
  87. Stream size                              : 13.8 MiB (0%)
  88. Title                                    : Hard of hearing
  89. Language                                 : Norwegian
  90. Default                                  : No
  91. Forced                                   : No
  92. Menu
  93. 00:00:00.000                             : :Chapter 1
  94. 00:09:59.708                             : :Chapter 2
  95. 00:19:59.833                             : :Chapter 3
  96. 00:29:59.583                             : :Chapter 4
  97. 00:39:59.833                             : :Chapter 5
  98. 00:49:59.875                             : :Chapter 6
  99. 00:59:59.583                             : :Chapter 7
  100. 01:09:59.833                             : :Chapter 8
  101. 01:19:59.542                             : :Chapter 9
  102. 01:29:59.833                             : :Chapter 10
  103. 01:39:59.875                             : :Chapter 11
  104. 01:49:59.833                             : :Chapter 12
  105. 01:59:59.792                             : :Chapter 13
复制代码







                                       
                                       

                                       
                                       
                                       




回复

使用道具 举报

懒得打字嘛,点击右侧快捷回复 【右侧内容,后台自定义】
您需要登录后才可以回帖 登录 | 立即加入

本版积分规则

Archiver|小黑屋| 蓝光电影网 |网站地图

Copyright © 2021 Comsenz Inc. Powered by 蓝光电影网

蓝光电影网

本站内容由用户自主分享和转载自互联网,转载目的在于传递更多信息,并不代表本网赞同其观点和对其真实性负责。

如有侵权、违反国家法律政策行为,请联系我们,我们会第一时间及时清除和处理!

举报反馈邮箱:[email protected]

快速回复 返回顶部 返回列表