找回密码

蓝光电影网

查看: 48|回复: 3

[动作] 异种 Species.1995.REMASTERED.720p.BluRay.x264-PiGNUS 7.78GB

[复制链接]
蓝光币
886
发表于 2022-7-28 08:58:03 | 显示全部楼层 |阅读模式


◎标  题 异种
◎片  名 Species
◎年  代 1995
◎产  地 美国
◎类  别 行动 / 科幻 / 可骇
◎语  言 英语
◎上映日期 1995-07-07(美国)
◎IMDb评分 5.8/10 (79465人评价)
◎IMDb链接 https://www.imdb.com/title/tt0114508/
◎豆瓣评分 6.4/10 (17137人评价)
◎豆瓣链接 https://movie.douban.com/subject/1293442/
◎片  长 108 分钟
◎导  演 罗杰·唐纳森 Roger Donaldson
◎编  剧 丹尼斯·费尔德曼 Dennis Feldman
◎演  员 本·金斯利 Ben Kingsley
       迈克尔·马德森 Michael Madsen
       阿尔弗雷德·莫里纳 Alfred Molina
       福里斯特·惠特克 Forest Whitaker
       玛格·海根柏格 Marg Helgenberger
       娜塔莎·亨斯屈奇 Natasha Henstridge
       米歇尔·威廉姆斯 Michelle Williams
       乔丹·朗德 Jordan Lund
       大卫·詹森 David Jensen
       伊斯特·斯高特 Esther Scott
       威廉·尤泰 William Utay
       赫塔威尔 Herta Ware
       威廉姆·鲍姆利尔 William Bumiller
       卡洛琳·巴克利 Caroline Barclay
       马修·阿什福德 Matthew Ashford
       安东尼·吉德拉 Anthony Guidera
       Sara Lise Sara Lise
       维普哈布莱 Whip Hubley
       帕特里夏·贝尔彻 Patricia Belcher
       理查德·凡西 Richard Fancy
       爱德·斯通 Ed Stone
       丹德里·泰勒 Dendrie Taylor
       达娜·喜 Dana Hee
       弗兰克·维尔克 Frank Welker
       安德泽·巴特科维卡 Andrzej Bartkowiak
       Jellybean Benítez Jellybean Benítez
       Jimmy Chunga Jimmy Chunga
       罗杰·唐纳森 Roger Donaldson
       James Ent James Ent
       扎克·克努森 Zak Knutson
       Coati Mundi Coati Mundi
       Peter Wick Peter Wick
       克里斯托弗·杨 Christopher Young
       安德泽·巴特科维卡 Andrzej Bartkowiak
       康拉德·巴夫四世 Conrad Buff IV
       凯茜·桑德里奇 Cathy Sandrich
       Amanda Mackey Johnson Amanda Mackey Johnson
       丹·韦伯斯特 Dan Webster
       乔·汤普金斯 Joe I. Tompkins
       Nina Paskowitz Nina Paskowitz
       Kenny Myers Kenny Myers
       史蒂夫·约翰逊 Steve Johnson
       Tracey Levy Tracey Levy
       戴维·沃马克 David Womark
       Suzie Pelissier Suzie Pelissier
       李·奥尔洛夫 Lee Orloff
       Ellen Somers Ellen Somers
       David A. Smith David A. Smith
       朗·西蒙森 Ron Simonson
       Olivier Sarda Olivier Sarda
       Ray Moore Ray Moore
       米歇尔·莫恩 Michele Moen
       Meher Gourjian Meher Gourjian
       卡林·乔伊 Karin Joy
       雅克·斯特罗维斯 Jacques Stroweis
       David Jones David Jones
       吉姆·瑞吉尔 Jim Rygiel
       戴尔·拜尔 Dale Baer
       克里斯托尔·道德 Crystal Dowd
       马可·伍斯特 Marco Wuest
◎简  介

  自20世纪70年月起头,美国政府实施了名为SETI的计划,30年来不中断的用射电千里镜扫描宇宙空间,旨在寻觅外星生物和相关文化。在犹他州的德威市,有一所隶属政府的尝试室,这里正在停止一项奥秘实验。在此之前,人类曾遭到外星文化发回的信息,其中包括外星生物的DNA组成和生命重组的方式。犹他州尝试室的科学家们操纵外星人供给的材料培育出具有外星人DNA的新人类“塞尔”。出于某种缘由,政府决议中断这项尝试,但其中一个塞尔却逃出尝试室。她将给人类带来怎样的影响?                                    
                                本片荣获1996年MTV电影奖最好银幕之吻奖、1995年科环宇宙杂志最好化装奖、1995年Sitges-Catalonian国际电影节最好殊效奖。
  1. Video
  2. ID                                       : 1
  3. Format                                   : AVC
  4. Format/Info                              : Advanced Video Codec
  5. Format profile                           : [email protected]
  6. Format settings                          : CABAC / 12 Ref Frames
  7. Format settings, CABAC                   : Yes
  8. Format settings, Reference frames        : 12 frames
  9. Codec ID                                 : V_MPEG4/ISO/AVC
  10. Duration                                 : 1 h 48 min
  11. Bit rate                                 : 9 376 kb/s
  12. Width                                    : 1 280 pixels
  13. Height                                   : 536 pixels
  14. Display aspect ratio                     : 2.40:1
  15. Frame rate mode                          : Constant
  16. Frame rate                               : 24.000 FPS
  17. Color space                              : YUV
  18. Chroma subsampling                       : 4:2:0
  19. Bit depth                                : 8 bits
  20. Scan type                                : Progressive
  21. Bits/(Pixel*Frame)                       : 0.569
  22. Stream size                              : 7.10 GiB (91%)
  23. Writing library                          : x264 core 164 r3095 baee400
  24. Encoding settings                        : cabac=1 / ref=12 / deblock=1:-3:-3 / analyse=0x3:0x133 / me=umh / subme=10 / psy=1 / psy_rd=1.00:0.00 / mixed_ref=1 / me_range=24 / chroma_me=1 / trellis=2 / 8x8dct=1 / cqm=0 / deadzone=21,11 / fast_pskip=1 / chroma_qp_offset=-2 / threads=17 / lookahead_threads=2 / sliced_threads=0 / nr=0 / decimate=1 / interlaced=0 / bluray_compat=0 / constrained_intra=0 / bframes=8 / b_pyramid=2 / b_adapt=2 / b_bias=0 / direct=3 / weightb=1 / open_gop=0 / weightp=2 / keyint=250 / keyint_min=24 / scenecut=40 / intra_refresh=0 / rc_lookahead=60 / rc=crf / mbtree=1 / crf=16.0 / qcomp=0.60 / qpmin=0 / qpmax=69 / qpstep=4 / ip_ratio=1.40 / aq=1:1.00
  25. Default                                  : Yes
  26. Forced                                   : No

  27. Audio #1
  28. ID                                       : 2
  29. Format                                   : AC-3
  30. Format/Info                              : Audio Coding 3
  31. Commercial name                          : Dolby Digital
  32. Codec ID                                 : A_AC3
  33. Duration                                 : 1 h 48 min
  34. Bit rate mode                            : Constant
  35. Bit rate                                 : 640 kb/s
  36. Channel(s)                               : 6 channels
  37. Channel layout                           : L R C LFE Ls Rs
  38. Sampling rate                            : 48.0 kHz
  39. Frame rate                               : 31.250 FPS (1536 SPF)
  40. Compression mode                         : Lossy
  41. Stream size                              : 496 MiB (6%)
  42. Language                                 : English
  43. Service kind                             : Complete Main
  44. Default                                  : Yes
  45. Forced                                   : No

  46. Audio #2
  47. ID                                       : 3
  48. Format                                   : AAC LC
  49. Format/Info                              : Advanced Audio Codec Low Complexity
  50. Codec ID                                 : A_AAC-2
  51. Duration                                 : 1 h 48 min
  52. Bit rate                                 : 126 kb/s
  53. Channel(s)                               : 2 channels
  54. Channel layout                           : L R
  55. Sampling rate                            : 48.0 kHz
  56. Frame rate                               : 46.875 FPS (1024 SPF)
  57. Compression mode                         : Lossy
  58. Delay relative to video                  : 9 ms
  59. Stream size                              : 97.6 MiB (1%)
  60. Title                                    : Commentary 1
  61. Language                                 : English
  62. Default                                  : No
  63. Forced                                   : No

  64. Audio #3
  65. ID                                       : 4
  66. Format                                   : AAC LC
  67. Format/Info                              : Advanced Audio Codec Low Complexity
  68. Codec ID                                 : A_AAC-2
  69. Duration                                 : 1 h 48 min
  70. Bit rate                                 : 129 kb/s
  71. Channel(s)                               : 2 channels
  72. Channel layout                           : L R
  73. Sampling rate                            : 48.0 kHz
  74. Frame rate                               : 46.875 FPS (1024 SPF)
  75. Compression mode                         : Lossy
  76. Delay relative to video                  : 9 ms
  77. Stream size                              : 99.7 MiB (1%)
  78. Title                                    : Commentary 2
  79. Language                                 : English
  80. Default                                  : No
  81. Forced                                   : No

  82. Text
  83. ID                                       : 5
  84. Format                                   : PGS
  85. Muxing mode                              : zlib
  86. Codec ID                                 : S_HDMV/PGS
  87. Codec ID/Info                            : Picture based subtitle format used on BDs/HD-DVDs
  88. Duration                                 : 1 h 43 min
  89. Bit rate                                 : 23.0 kb/s
  90. Count of elements                        : 2680
  91. Stream size                              : 16.9 MiB (0%)
  92. Title                                    : English SDH
  93. Language                                 : English
  94. Default                                  : No
  95. Forced                                   : No

  96. Menu
  97. 00:00:00.000                             : en:Chapter 01
  98. 00:08:27.250                             : en:Chapter 02
  99. 00:17:38.542                             : en:Chapter 03
  100. 00:27:12.625                             : en:Chapter 04
  101. 00:36:29.792                             : en:Chapter 05
  102. 00:45:07.500                             : en:Chapter 06
  103. 00:54:03.292                             : en:Chapter 07
  104. 01:03:13.208                             : en:Chapter 08
  105. 01:11:50.958                             : en:Chapter 09
  106. 01:17:46.917                             : en:Chapter 10
  107. 01:29:00.708                             : en:Chapter 11
  108. 01:42:30.500                             : en:Chapter 12
  109. 01:48:19.917                             : en:Chapter 13
复制代码





                                       
                                       

                                       
                                       
                                       




回复

使用道具 举报

蓝光币
167
发表于 2022-7-28 09:25:26 | 显示全部楼层

既然你诚信诚意的推荐了,那我就勉为其难的看看吧!蓝光电影网不走平凡路。
回复 支持 反对

使用道具 举报

蓝光币
548
发表于 2022-7-28 10:41:38 | 显示全部楼层
楼主发贴辛苦了,谢谢楼主分享!我觉得蓝光电影网是注册对了!
回复 支持 反对

使用道具 举报

蓝光币
73
发表于 2022-7-28 11:29:05 | 显示全部楼层
哈哈哈哈或或或或或或或或或或或或或或或
回复 支持 反对

使用道具 举报

懒得打字嘛,点击右侧快捷回复 【右侧内容,后台自定义】
您需要登录后才可以回帖 登录 | 立即加入

本版积分规则

Archiver|小黑屋| 蓝光电影网 |网站地图

Copyright © 2021 Comsenz Inc. Powered by 蓝光电影网

蓝光电影网

本站内容由用户自主分享和转载自互联网,转载目的在于传递更多信息,并不代表本网赞同其观点和对其真实性负责。

如有侵权、违反国家法律政策行为,请联系我们,我们会第一时间及时清除和处理!

举报反馈邮箱:[email protected]

快速回复 返回顶部 返回列表