找回密码

蓝光电影网

查看: 56|回复: 0

[动作] 未来先锋 Megaforce.1982.1080p.BluRay.x264-YAMG 9.31GB

[复制链接]
蓝光币
886
发表于 2022-7-28 08:54:03 | 显示全部楼层 |阅读模式


◎标  题 未来先锋
◎译  名 Megaforce
◎片  名 Megaforce
◎年  代 1982
◎产  地 美国 / 中国香港
◎类  别 行动 / 科幻
◎语  言 英语
◎上映日期 1982-06-25
◎IMDb评分 3.6/10 (3810人评价)
◎IMDb链接 https://www.imdb.com/title/tt0084316/
◎豆瓣链接 https://movie.douban.com/subject/1300049/
◎片  长 99 分钟
◎导  演 哈尔·尼达姆 Hal Needham
◎编  剧 艾伯特·S·拉迪 Albert S. Ruddy
       安德鲁·摩根 Andre Morgan
       哈尔·尼达姆 Hal Needham
◎演  员 巴瑞·波斯威克 Barry Bostwick
       珀西丝·汉姆巴塔 Persis Khambatta
       亨利·席尔瓦 Henry Silva
       迈克尔·贝克 Michael Beck
       爱德华·马哈尔 Edward Mulhare
       乔治·菲尔特 George Furth
       拉尔夫·威尔科克斯 Ralph Wilcox
       Anthony Pena Anthony Pena
       哈尔·尼达姆 Hal Needham
       J. Víctor López J. Víctor López
       Robert Fuller Robert Fuller
       Bobby Bass Bobby Bass
       Ray Hill Ray Hill
       安德鲁·摩根 Andre Morgan
       艾伯特·S·拉迪 Albert S. Ruddy
       邹文怀 Raymond Chow
       Jerrold Immel Jerrold Immel
       迈克·芬顿 Mike Fenton
       Janna Phillips Janna Phillips
       Dorothea Long Dorothea Long
       威廉·梅萨 William Mesa
       Tim Donahue Tim Donahue
       吉姆·丹弗斯 Jim Danforth
       约翰·斯蒂尔斯 John Stears
       Laura Molina Laura Molina
       Eugene P. Rizzardi Eugene P. Rizzardi
  1. Video
  2. ID                                       : 1
  3. Format                                   : AVC
  4. Format/Info                              : Advanced Video Codec
  5. Format profile                           : [email protected]
  6. Format settings                          : CABAC / 4 Ref Frames
  7. Format settings, CABAC                   : Yes
  8. Format settings, Reference frames        : 4 frames
  9. Codec ID                                 : V_MPEG4/ISO/AVC
  10. Duration                                 : 1 h 39 min
  11. Bit rate                                 : 11.4 Mb/s
  12. Width                                    : 1 920 pixels
  13. Height                                   : 1 080 pixels
  14. Display aspect ratio                     : 16:9
  15. Frame rate mode                          : Constant
  16. Frame rate                               : 23.976 (24000/1001/189150) FPS
  17. Color space                              : YUV
  18. Chroma subsampling                       : 4:2:0
  19. Bit depth                                : 8 bits
  20. Scan type                                : Progressive
  21. Bits/(Pixel*Frame)                       : 0.229
  22. Stream size                              : 7.89 GiB (85%)
  23. Writing library                          : x264 core 164 r3095 baee400
  24. Encoding settings                        : cabac=1 / ref=4 / deblock=1:-3:-3 / analyse=0x3:0x133 / me=umh / subme=10 / psy=1 / psy_rd=1.00:0.00 / mixed_ref=1 / me_range=32 / chroma_me=1 / trellis=2 / 8x8dct=1 / cqm=0 / deadzone=21,11 / fast_pskip=0 / chroma_qp_offset=-2 / threads=24 / lookahead_threads=4 / sliced_threads=0 / nr=0 / decimate=0 / interlaced=0 / bluray_compat=0 / constrained_intra=0 / bframes=8 / b_pyramid=2 / b_adapt=2 / b_bias=0 / direct=3 / weightb=1 / open_gop=0 / weightp=2 / keyint=250 / keyint_min=23 / scenecut=40 / intra_refresh=0 / rc=crf / mbtree=0 / crf=18.0 / qcomp=0.60 / qpmin=0 / qpmax=69 / qpstep=4 / ip_ratio=1.40 / pb_ratio=1.30 / aq=3:0.60
  25. Language                                 : English
  26. Default                                  : Yes
  27. Forced                                   : No
  28. Color range                              : Limited
  29. Matrix coefficients                      : BT.709

  30. Audio #1
  31. ID                                       : 2
  32. Format                                   : MLP FBA
  33. Format/Info                              : Meridian Lossless Packing FBA
  34. Commercial name                          : Dolby TrueHD
  35. Codec ID                                 : A_TRUEHD
  36. Duration                                 : 1 h 39 min
  37. Bit rate mode                            : Variable
  38. Bit rate                                 : 1 313 kb/s
  39. Maximum bit rate                         : 2 049 kb/s
  40. Channel(s)                               : 6 channels
  41. Channel layout                           : L R C LFE Ls Rs
  42. Sampling rate                            : 48.0 kHz
  43. Frame rate                               : 1 200.000 FPS (40 SPF)
  44. Compression mode                         : Lossless
  45. Stream size                              : 933 MiB (10%)
  46. Title                                    : English
  47. Language                                 : English
  48. Default                                  : Yes
  49. Forced                                   : No

  50. Audio #2
  51. ID                                       : 3
  52. Format                                   : AC-3
  53. Format/Info                              : Audio Coding 3
  54. Commercial name                          : Dolby Digital
  55. Codec ID                                 : A_AC3
  56. Duration                                 : 1 h 39 min
  57. Bit rate mode                            : Constant
  58. Bit rate                                 : 640 kb/s
  59. Channel(s)                               : 6 channels
  60. Channel layout                           : L R C LFE Ls Rs
  61. Sampling rate                            : 48.0 kHz
  62. Frame rate                               : 31.250 FPS (1536 SPF)
  63. Compression mode                         : Lossy
  64. Stream size                              : 455 MiB (5%)
  65. Title                                    : English
  66. Language                                 : English
  67. Service kind                             : Complete Main
  68. Default                                  : Yes
  69. Forced                                   : No

  70. Text
  71. ID                                       : 4
  72. Format                                   : PGS
  73. Muxing mode                              : zlib
  74. Codec ID                                 : S_HDMV/PGS
  75. Codec ID/Info                            : Picture based subtitle format used on BDs/HD-DVDs
  76. Duration                                 : 1 h 38 min
  77. Bit rate                                 : 63.1 kb/s
  78. Count of elements                        : 3719
  79. Stream size                              : 44.6 MiB (0%)
  80. Title                                    : Japanese PGS
  81. Language                                 : Japanese
  82. Default                                  : No
  83. Forced                                   : No

  84. Menu
  85. 00:00:00.000                             : :Chapter 01
  86. 00:06:01.861                             : :Chapter 02
  87. 00:11:19.762                             : :Chapter 03
  88. 00:17:14.533                             : :Chapter 04
  89. 00:21:36.462                             : :Chapter 05
  90. 00:26:11.195                             : :Chapter 06
  91. 00:31:59.709                             : :Chapter 07
  92. 00:35:25.540                             : :Chapter 08
  93. 00:41:53.970                             : :Chapter 09
  94. 00:47:56.707                             : :Chapter 10
  95. 00:55:48.345                             : :Chapter 11
  96. 01:03:28.179                             : :Chapter 12
  97. 01:08:17.218                             : :Chapter 13
  98. 01:13:24.650                             : :Chapter 14
  99. 01:17:48.622                             : :Chapter 15
  100. 01:22:58.932                             : :Chapter 16
  101. 01:27:49.806                             : :Chapter 17
  102. 01:32:39.721                             : :Chapter 18
复制代码






                                       
                                       

                                       
                                       
                                       




回复

使用道具 举报

懒得打字嘛,点击右侧快捷回复 【右侧内容,后台自定义】
您需要登录后才可以回帖 登录 | 立即加入

本版积分规则

Archiver|小黑屋| 蓝光电影网 |网站地图

Copyright © 2021 Comsenz Inc. Powered by 蓝光电影网

蓝光电影网

本站内容由用户自主分享和转载自互联网,转载目的在于传递更多信息,并不代表本网赞同其观点和对其真实性负责。

如有侵权、违反国家法律政策行为,请联系我们,我们会第一时间及时清除和处理!

举报反馈邮箱:[email protected]

快速回复 返回顶部 返回列表