找回密码

蓝光电影网

查看: 93|回复: 4

[剧情] 喋血街头 Bullet.in.the.Head.1990.CHINESE.1080p.BluRay.x264.DTS-NOGRP 9.59GB

[复制链接]
蓝光币
886
发表于 2022-7-28 08:58:32 | 显示全部楼层 |阅读模式


◎标  题 蹀血陌头
◎译  名 Bullet in the Head
◎片  名 蹀血街頭
◎年  代 1990
◎产  地 中国香港
◎类  别 剧情 / 行动 / 惊悚 / 犯罪
◎语  言 粤语 / 英语 / 越南语 / 法语
◎上映日期 1990-08-17(中国香港)
◎IMDb评分 7.6/10 (10464人评价)
◎IMDb链接 https://www.imdb.com/title/tt0099426/
◎豆瓣评分 8.2/10 (43288人评价)
◎豆瓣链接 https://movie.douban.com/subject/1295344/
◎片  长 130分钟
◎导  演 吴宇森 John Woo
◎编  剧 梁柏坚 Patrick Leung
       吴宇森 John Woo
       秦小珍 Janet Chun
◎演  员 梁朝伟 Tony Leung Chiu Wai
       张学友 Jacky Cheung
       李子雄 Waise Lee
       任达华 Simon Yam
       甄楚倩 Yolinda Yan
       袁洁莹 Fennie Yuen
       鲍起静 Hee Ching Paw
       吴宇森 John Woo
       李耀景 Yiu Ging Lee
       林志泰 Chi Tai Lam
       徐广林 Kwong Lam Tsui
       黄伟辉 Wong Wai-Fai
       林富伟 Fu-wai Lam
       林华勋 Jameson Wa-Fan Lam
       曾近荣 Kan-Wing Tsang
       刘锡贤 Shek Yin Lau
       苏杏璇 Hang Shuen So
       刘志豪 Chi-Ho Lau
       杜伟和 Wei Ho Tu
       戴乐民 Romeo Díaz
       黄永久 Wing-Hung Wong
       陈沛佳 Wilson Chan
       林国华 Ardy Lam
       Chai Kittikum Som Chai Kittikum Som
       胡大为 David Wu
       吴宇森 John Woo
       梁华生 James Leung
       刘志豪 Chi-Ho Lau
       刘嘉蔚 Catherine Lau
       罗礼贤 Bruce Law
◎标  签 吴宇森 / 梁朝伟 / 香港 / 张学友 / 香港电影 / 行动 / 黑帮 / 李子雄
◎简  介

  细荣(李子雄饰)、阿B(梁朝伟饰),辉仔(张学友饰)在石殎尾陡置区一同长大,三人情同骨肉,虽然大家家境贫苦,年轻的心从没有落空对未来的空想与向往。阿B因要与女友小珍(袁洁莹饰)成婚,众人各出奇谋为阿B筹钱。辉仔借来高利贷途中被劫,辉仔负伤往婚礼。及后,阿B与辉仔来去仇而误杀废强,细荣众人遂到越南流亡。当时西贡市长外弛内张,对众人来说即是炼狱,更遇上越共刺杀越南政要,细荣遂决议要搏命捞一笔钱才分开越南。细荣近亲中、法混血儿阿乐(任达华饰)是职业杀手,阿乐得知越南恶霸梁源盛在夜总会有黄金买卖,遂与一众里应外合,苦战后把黄金抢走,阿B为拯救一位香港女歌星陈秀青而险丧命……                                    
                                吴宇森顶峰期间的野心力作,对情与义的探讨有其深邃之处,行动排场火爆亮眼。是港片不成多得的佳作。
  1. Video
  2. ID                                       : 1
  3. Format                                   : AVC
  4. Format/Info                              : Advanced Video Codec
  5. Format profile                           : [email protected]
  6. Format settings                          : CABAC / 4 Ref Frames
  7. Format settings, CABAC                   : Yes
  8. Format settings, Reference frames        : 4 frames
  9. Codec ID                                 : V_MPEG4/ISO/AVC
  10. Duration                                 : 2 h 10 min
  11. Bit rate                                 : 8 151 kb/s
  12. Width                                    : 1 920 pixels
  13. Height                                   : 1 018 pixels
  14. Display aspect ratio                     : 1.886
  15. Frame rate mode                          : Constant
  16. Frame rate                               : 23.976 (24000/1001/189150) FPS
  17. Color space                              : YUV
  18. Chroma subsampling                       : 4:2:0
  19. Bit depth                                : 8 bits
  20. Scan type                                : Progressive
  21. Bits/(Pixel*Frame)                       : 0.174
  22. Stream size                              : 7.46 GiB (78%)
  23. Title                                    : [email protected]
  24. Writing library                          : x264 core 148 r2692+46 0f71ed5 7mod [[email protected] X86_64]
  25. Encoding settings                        : cabac=1 / ref=4 / deblock=1:-3:-3 / analyse=0x3:0x113 / me=umh / subme=11 / psy=1 / fade_compensate=0.00 / psy_rd=1.00:0.00 / mixed_ref=1 / me_range=48 / chroma_me=1 / trellis=2 / 8x8dct=1 / cqm=0 / deadzone=11,6 / fast_pskip=0 / chroma_qp_offset=-2 / threads=24 / lookahead_threads=4 / sliced_threads=0 / nr=0 / decimate=0 / interlaced=0 / bluray_compat=0 / constrained_intra=0 / fgo=0 / bframes=8 / b_pyramid=2 / b_adapt=2 / b_bias=0 / direct=3 / weightb=1 / open_gop=0 / weightp=2 / keyint=250 / keyint_min=23 / scenecut=40 / intra_refresh=0 / rc_lookahead=60 / rc=crf / mbtree=0 / crf=22.5000 / qcomp=0.60 / qpmin=0:0:0 / qpmax=32:32:32 / qpstep=4 / vbv_maxrate=40000 / vbv_bufsize=30000 / crf_max=0.0 / nal_hrd=none / filler=0 / ip_ratio=1.30 / pb_ratio=1.20 / aq=4:0.80 / aq-sensitivity=10.00 / aq-factor=1.00:1.00:1.00 / aq2=0 / aq3=0
  26. Language                                 : Chinese
  27. Default                                  : Yes
  28. Forced                                   : No
  29. Color range                              : Limited
  30. Color primaries                          : BT.709
  31. Transfer characteristics                 : BT.709
  32. Matrix coefficients                      : BT.709
  33. Audio #1
  34. ID                                       : 2
  35. Format                                   : DTS
  36. Format/Info                              : Digital Theater Systems
  37. Codec ID                                 : A_DTS
  38. Duration                                 : 2 h 10 min
  39. Bit rate mode                            : Constant
  40. Bit rate                                 : 1 510 kb/s
  41. Channel(s)                               : 6 channels
  42. Channel layout                           : C L R Ls Rs LFE
  43. Sampling rate                            : 48.0 kHz
  44. Frame rate                               : 93.750 FPS (512 SPF)
  45. Bit depth                                : 24 bits
  46. Compression mode                         : Lossy
  47. Delay relative to video                  : 83 ms
  48. Stream size                              : 1.38 GiB (14%)
  49. Language                                 : Chinese
  50. Default                                  : Yes
  51. Forced                                   : No
  52. Audio #2
  53. ID                                       : 3
  54. Format                                   : E-AC-3
  55. Format/Info                              : Enhanced AC-3
  56. Commercial name                          : Dolby Digital Plus
  57. Codec ID                                 : A_EAC3
  58. Duration                                 : 2 h 11 min
  59. Bit rate mode                            : Constant
  60. Bit rate                                 : 768 kb/s
  61. Channel(s)                               : 6 channels
  62. Channel layout                           : L R C LFE Ls Rs
  63. Sampling rate                            : 48.0 kHz
  64. Frame rate                               : 62.500 FPS (768 SPF)
  65. Compression mode                         : Lossy
  66. Stream size                              : 720 MiB (7%)
  67. Language                                 : English
  68. Service kind                             : Complete Main
  69. Default                                  : Yes
  70. Forced                                   : No
  71. Text #1
  72. ID                                       : 4
  73. Format                                   : UTF-8
  74. Codec ID                                 : S_TEXT/UTF8
  75. Codec ID/Info                            : UTF-8 Plain Text
  76. Duration                                 : 2 h 7 min
  77. Bit rate                                 : 31 b/s
  78. Frame rate                               : 0.161 FPS
  79. Count of elements                        : 1228
  80. Stream size                              : 29.3 KiB (0%)
  81. Language                                 : English
  82. Default                                  : Yes
  83. Forced                                   : No
  84. Text #2
  85. ID                                       : 5
  86. Format                                   : PGS
  87. Muxing mode                              : zlib
  88. Codec ID                                 : S_HDMV/PGS
  89. Codec ID/Info                            : Picture based subtitle format used on BDs/HD-DVDs
  90. Duration                                 : 2 h 7 min
  91. Bit rate                                 : 13.1 kb/s
  92. Frame rate                               : 0.309 FPS
  93. Count of elements                        : 2359
  94. Stream size                              : 11.9 MiB (0%)
  95. Title                                    : Simplified
  96. Language                                 : Chinese
  97. Default                                  : No
  98. Forced                                   : No
  99. Text #3
  100. ID                                       : 6
  101. Format                                   : PGS
  102. Muxing mode                              : zlib
  103. Codec ID                                 : S_HDMV/PGS
  104. Codec ID/Info                            : Picture based subtitle format used on BDs/HD-DVDs
  105. Duration                                 : 2 h 7 min
  106. Bit rate                                 : 13.5 kb/s
  107. Frame rate                               : 0.309 FPS
  108. Count of elements                        : 2359
  109. Stream size                              : 12.2 MiB (0%)
  110. Title                                    : Traditional
  111. Language                                 : Chinese
  112. Default                                  : No
  113. Forced                                   : No
  114. Text #4
  115. ID                                       : 7
  116. Format                                   : PGS
  117. Muxing mode                              : zlib
  118. Codec ID                                 : S_HDMV/PGS
  119. Codec ID/Info                            : Picture based subtitle format used on BDs/HD-DVDs
  120. Duration                                 : 2 h 7 min
  121. Bit rate                                 : 24.4 kb/s
  122. Frame rate                               : 0.324 FPS
  123. Count of elements                        : 2470
  124. Stream size                              : 22.2 MiB (0%)
  125. Title                                    : Simplified Chinese & English
  126. Language                                 : Chinese
  127. Default                                  : No
  128. Forced                                   : No
  129. Text #5
  130. ID                                       : 8
  131. Format                                   : PGS
  132. Muxing mode                              : zlib
  133. Codec ID                                 : S_HDMV/PGS
  134. Codec ID/Info                            : Picture based subtitle format used on BDs/HD-DVDs
  135. Duration                                 : 2 h 7 min
  136. Bit rate                                 : 24.8 kb/s
  137. Frame rate                               : 0.324 FPS
  138. Count of elements                        : 2470
  139. Stream size                              : 22.5 MiB (0%)
  140. Title                                    : Traditional Chinese & English
  141. Language                                 : Chinese
  142. Default                                  : No
  143. Forced                                   : No
  144. Text #6
  145. ID                                       : 9
  146. Format                                   : PGS
  147. Muxing mode                              : zlib
  148. Codec ID                                 : S_HDMV/PGS
  149. Codec ID/Info                            : Picture based subtitle format used on BDs/HD-DVDs
  150. Duration                                 : 2 h 7 min
  151. Bit rate                                 : 24.3 kb/s
  152. Frame rate                               : 0.322 FPS
  153. Count of elements                        : 2452
  154. Stream size                              : 22.1 MiB (0%)
  155. Language                                 : English
  156. Default                                  : No
  157. Forced                                   : No
  158. Menu
  159. 00:00:00.000                             : :绗?01 绔?
  160. 00:06:12.455                             : :绗?02 绔?
  161. 00:12:11.022                             : :绗?03 绔?
  162. 00:19:32.004                             : :绗?04 绔?
  163. 00:26:16.366                             : :绗?05 绔?
  164. 00:32:03.713                             : :绗?06 绔?
  165. 00:37:22.615                             : :绗?07 绔?
  166. 00:46:12.144                             : :绗?08 绔?
  167. 00:52:56.298                             : :绗?09 绔?
  168. 01:01:31.021                             : :绗?10 绔?
  169. 01:07:01.351                             : :绗?11 绔?
  170. 01:11:54.519                             : :绗?12 绔?
  171. 01:17:24.473                             : :绗?13 绔?
  172. 01:30:02.355                             : :绗?14 绔?
  173. 01:36:56.686                             : :绗?15 绔?
  174. 01:44:24.550                             : :绗?16 绔?
  175. 01:52:48.470                             : :绗?17 绔?
  176. 01:58:56.588                             : :绗?18 绔?
  177. 02:01:01.796                             : :绗?19 绔?
  178. 02:05:04.539                             : :绗?20 绔?
复制代码







                                       
                                       

                                       
                                       
                                       




回复

使用道具 举报

蓝光币
1
发表于 2022-7-28 14:22:05 | 显示全部楼层
感谢楼主,再发精品

回复 支持 反对

使用道具 举报

蓝光币
100
发表于 2022-7-28 15:43:42 | 显示全部楼层
楼主发贴辛苦了,谢谢楼主分享!我觉得蓝光电影网是注册对了!
回复 支持 反对

使用道具 举报

蓝光币
3
发表于 2022-7-28 16:48:24 | 显示全部楼层

这个帖子不回对不起自己!我想我是一天也不能离开蓝光电影网。
回复 支持 反对

使用道具 举报

蓝光币
362
发表于 2022-7-28 18:39:24 | 显示全部楼层
楼主发贴辛苦了,谢谢楼主分享!我觉得蓝光电影网是注册对了!
回复 支持 反对

使用道具 举报

懒得打字嘛,点击右侧快捷回复 【右侧内容,后台自定义】
您需要登录后才可以回帖 登录 | 立即加入

本版积分规则

Archiver|小黑屋| 蓝光电影网 |网站地图

Copyright © 2021 Comsenz Inc. Powered by 蓝光电影网

蓝光电影网

本站内容由用户自主分享和转载自互联网,转载目的在于传递更多信息,并不代表本网赞同其观点和对其真实性负责。

如有侵权、违反国家法律政策行为,请联系我们,我们会第一时间及时清除和处理!

举报反馈邮箱:[email protected]

快速回复 返回顶部 返回列表