找回密码

蓝光电影网

查看: 19|回复: 0

[剧情] 哇哇岁月 Wah-Wah.2005.1080p.AMZN.WEBRip.DDP2.0.x264-NTb 8.30GB

[复制链接]
蓝光币
886
发表于 2022-7-28 09:21:48 | 显示全部楼层 |阅读模式


◎标  题 哇哇光阴
◎片  名 Wah-Wah
◎年  代 2005
◎产  地 英国 / 法国 / 南非
◎类  别 剧情
◎语  言 英语
◎上映日期 2006-11-10
◎IMDb评分 6.8/10 (3143人评价)
◎IMDb链接 https://www.imdb.com/title/tt0419256/
◎豆瓣评分 7.6/10 (393人评价)
◎豆瓣链接 https://movie.douban.com/subject/1769104/
◎片  长 USA: 120 分钟
◎导  演 理查德·E·格兰特 Richard E. Grant
◎编  剧 理查德·E·格兰特 Richard E. Grant
◎演  员 John Matshikiza John Matshikiza
       艾米丽·沃森 Emily Watson
       米兰达·理查森 Miranda Richardson
       朱丽·沃特斯 Julie Walters
       尼古拉斯·霍尔特 Nicholas Hoult
       加布里埃尔·伯恩 Gabriel Byrne
       Zac Fox Zac Fox
       费奈拉·伍尔加 Fenella Woolgar
       朱利安·沃德姆 Julian Wadham
       西莉亚·伊姆里 Celia Imrie
       玛丽王妃 Kronprinsesse Mary
       克里斯·柯林 Chris Curling
       帕特里克·道尔 Patrick Doyle
       Pierre Aïm Pierre Aïm
       Isabelle Dedieu Isabelle Dedieu
       席娜·纳皮尔 Sheena Napier
       阿什利·约翰逊 Ashley Johnson
       艾力克斯·奥克雷 Alex Oakley
◎简  介

  到底原片名Wah-Wah代表什么意义?本来指称叽哩咕噜的非洲土话,一方面摆明嘲讽当地英国白人统治阶级明显鄙夷却又决心去亲近原居民的虚假假面;另一方面临李察E葛兰来说,Wah-Wah是他懊恼苦闷时的忘情大呼,一种开释、一种情感宣泄。调集了米兰达李察逊(Miranda Richardson)、茱莉华特丝(Julie Walters)及埃米莉华森三位精采的英国女演员,李察E葛兰聪明又决心地把琵琶别抱的生母、父亲新娶的继母两个身份代入政治批评。米兰达李察逊饰演的生母是个欲求不满的悲痛怨妇,担任殖民官的父亲(盖布瑞拜恩)意味着日渐萎糜的大英帝国,至于布满年重活力却被当地守旧上层阶级排挤的美国空姐继母,自然代表着美国新天下了。当剧情走到史瓦济兰离开英国自力,仆人翁瑞夫正巧也由于父亲健康萎靡不振而必须走出其羽翼,至此,政治暗喻已经很是明显了。自力的个体必定要离开父...
  1. Video
  2. ID                                       : 1
  3. Format                                   : AVC
  4. Format/Info                              : Advanced Video Codec
  5. Format profile                           : [email protected]
  6. Format settings                          : CABAC / 4 Ref Frames
  7. Format settings, CABAC                   : Yes
  8. Format settings, Reference frames        : 4 frames
  9. Codec ID                                 : V_MPEG4/ISO/AVC
  10. Duration                                 : 1 h 39 min
  11. Bit rate mode                            : Variable
  12. Bit rate                                 : 11.7 Mb/s
  13. Maximum bit rate                         : 15.0 Mb/s
  14. Width                                    : 1 920 pixels
  15. Height                                   : 1 080 pixels
  16. Display aspect ratio                     : 16:9
  17. Frame rate mode                          : Constant
  18. Frame rate                               : 23.976 (24000/1001/189150) FPS
  19. Color space                              : YUV
  20. Chroma subsampling                       : 4:2:0
  21. Bit depth                                : 8 bits
  22. Scan type                                : Progressive
  23. Bits/(Pixel*Frame)                       : 0.235
  24. Stream size                              : 8.14 GiB (98%)
  25. Default                                  : Yes
  26. Forced                                   : No
  27. Color range                              : Limited
  28. Color primaries                          : BT.709
  29. Transfer characteristics                 : BT.709
  30. Matrix coefficients                      : BT.709
  31. Audio
  32. ID                                       : 2
  33. Format                                   : E-AC-3
  34. Format/Info                              : Enhanced AC-3
  35. Commercial name                          : Dolby Digital Plus
  36. Codec ID                                 : A_EAC3
  37. Duration                                 : 1 h 39 min
  38. Bit rate mode                            : Constant
  39. Bit rate                                 : 224 kb/s
  40. Channel(s)                               : 2 channels
  41. Channel layout                           : L R
  42. Sampling rate                            : 48.0 kHz
  43. Frame rate                               : 31.250 FPS (1536 SPF)
  44. Compression mode                         : Lossy
  45. Stream size                              : 160 MiB (2%)
  46. Language                                 : English
  47. Service kind                             : Complete Main
  48. Default                                  : Yes
  49. Forced                                   : No
  50. Text
  51. ID                                       : 3
  52. Format                                   : UTF-8
  53. Codec ID                                 : S_TEXT/UTF8
  54. Codec ID/Info                            : UTF-8 Plain Text
  55. Duration                                 : 1 h 37 min
  56. Bit rate                                 : 58 b/s
  57. Frame rate                               : 0.240 FPS
  58. Count of elements                        : 1400
  59. Stream size                              : 41.3 KiB (0%)
  60. Title                                    : SDH
  61. Language                                 : English
  62. Default                                  : No
  63. Forced                                   : No
复制代码





                                       
                                       

                                       
                                       
                                       




回复

使用道具 举报

懒得打字嘛,点击右侧快捷回复 【右侧内容,后台自定义】
您需要登录后才可以回帖 登录 | 立即加入

本版积分规则

Archiver|小黑屋| 蓝光电影网 |网站地图

Copyright © 2021 Comsenz Inc. Powered by 蓝光电影网

蓝光电影网

本站内容由用户自主分享和转载自互联网,转载目的在于传递更多信息,并不代表本网赞同其观点和对其真实性负责。

如有侵权、违反国家法律政策行为,请联系我们,我们会第一时间及时清除和处理!

举报反馈邮箱:[email protected]

快速回复 返回顶部 返回列表