找回密码

蓝光电影网

查看: 21|回复: 0

[剧情] 玫瑰 Rose.2021.FRENCH.1080p.WEBRip.AAC2.0.x264-KUCHU 4.35GB

[复制链接]
蓝光币
886
发表于 2022-7-28 09:30:35 | 显示全部楼层 |阅读模式


◎标  题 玫瑰
◎片  名 Rose
◎年  代 2022
◎产  地 法国
◎类  别 剧情
◎语  言 法语
◎上映日期 2021-12-08(法国)
◎IMDb评分 6.8/10 (103人评价)
◎IMDb链接 https://www.imdb.com/title/tt13511518/
◎豆瓣链接 https://movie.douban.com/subject/35316043/
◎编  剧 耶尔·朗曼 Yaël Langmann
◎演  员 弗兰西丝·法比安 Françoise Fabian
       奥雷·阿蒂卡 Aure Atika
       格雷戈里·蒙泰尔 Grégory Montel
◎简  介

  Written by Yaël Langmann and Aurélie Saada, the story revolves around 78-year-old Rose who has just lost her beloved husband. When her sorrow gives way to a deep thirst for life – which helps her to realise that there’s still time for her to redefine herself as a woman - the family’s equilibrium is totally destabilised...
  1. Video
  2. ID                                       : 1
  3. Format                                   : AVC
  4. Format/Info                              : Advanced Video Codec
  5. Format profile                           : [email protected]
  6. Format settings                          : CABAC / 4 Ref Frames
  7. Format settings, CABAC                   : Yes
  8. Format settings, Reference frames        : 4 frames
  9. Codec ID                                 : V_MPEG4/ISO/AVC
  10. Duration                                 : 1 h 42 min
  11. Bit rate                                 : 5 732 kb/s
  12. Width                                    : 1 920 pixels
  13. Height                                   : 1 080 pixels
  14. Display aspect ratio                     : 16:9
  15. Frame rate mode                          : Constant
  16. Frame rate                               : 24.000 FPS
  17. Color space                              : YUV
  18. Chroma subsampling                       : 4:2:0
  19. Bit depth                                : 8 bits
  20. Scan type                                : Progressive
  21. Bits/(Pixel*Frame)                       : 0.115
  22. Stream size                              : 4.12 GiB (95%)
  23. Default                                  : Yes
  24. Forced                                   : No
  25. Audio
  26. ID                                       : 2
  27. Format                                   : AAC LC
  28. Format/Info                              : Advanced Audio Codec Low Complexity
  29. Codec ID                                 : A_AAC-2
  30. Duration                                 : 1 h 42 min
  31. Bit rate                                 : 317 kb/s
  32. Channel(s)                               : 2 channels
  33. Channel layout                           : L R
  34. Sampling rate                            : 48.0 kHz
  35. Frame rate                               : 46.875 FPS (1024 SPF)
  36. Compression mode                         : Lossy
  37. Stream size                              : 234 MiB (5%)
  38. Language                                 : French
  39. Default                                  : Yes
  40. Forced                                   : No
  41. Text #1
  42. ID                                       : 3
  43. Format                                   : UTF-8
  44. Codec ID                                 : S_TEXT/UTF8
  45. Codec ID/Info                            : UTF-8 Plain Text
  46. Duration                                 : 1 h 37 min
  47. Bit rate                                 : 42 b/s
  48. Frame rate                               : 0.197 FPS
  49. Count of elements                        : 1156
  50. Stream size                              : 30.0 KiB (0%)
  51. Language                                 : English
  52. Default                                  : Yes
  53. Forced                                   : No
  54. Text #2
  55. ID                                       : 4
  56. Format                                   : UTF-8
  57. Codec ID                                 : S_TEXT/UTF8
  58. Codec ID/Info                            : UTF-8 Plain Text
  59. Duration                                 : 1 h 37 min
  60. Bit rate                                 : 43 b/s
  61. Frame rate                               : 0.198 FPS
  62. Count of elements                        : 1158
  63. Stream size                              : 31.1 KiB (0%)
  64. Language                                 : Spanish
  65. Default                                  : No
  66. Forced                                   : No
复制代码






                                       
                                       

                                       
                                       
                                       




回复

使用道具 举报

懒得打字嘛,点击右侧快捷回复 【右侧内容,后台自定义】
您需要登录后才可以回帖 登录 | 立即加入

本版积分规则

Archiver|小黑屋| 蓝光电影网 |网站地图

Copyright © 2021 Comsenz Inc. Powered by 蓝光电影网

蓝光电影网

本站内容由用户自主分享和转载自互联网,转载目的在于传递更多信息,并不代表本网赞同其观点和对其真实性负责。

如有侵权、违反国家法律政策行为,请联系我们,我们会第一时间及时清除和处理!

举报反馈邮箱:[email protected]

快速回复 返回顶部 返回列表