找回密码

蓝光电影网

查看: 18|回复: 0

[剧情] 魂断今宵 Angel.Face.1952.1080p.iP.WEBRip.AAC2.0.x264-Spekt0r 5.04GB

[复制链接]
蓝光币
886
发表于 2022-7-28 09:43:06 | 显示全部楼层 |阅读模式


◎标  题 魂断今宵
◎片  名 Angel Face
◎年  代 1953
◎产  地 美国
◎类  别 剧情 / 犯罪 / 黑色电影
◎语  言 英语 / 日语
◎上映日期 1953-12-24
◎IMDb评分 7.2/10 (8024人评价)
◎IMDb链接 https://www.imdb.com/title/tt0044357/
◎豆瓣评分 7.7/10 (466人评价)
◎豆瓣链接 https://movie.douban.com/subject/1945629/
◎片  长 91 分钟
◎导  演 奥托·普雷明格 Otto Preminger
◎编  剧 弗兰克·S·纽金特 Frank S. Nugent
       奥斯卡·米勒德 Oscar Millard
       切斯特·厄斯金 Chester Erskine
       本·赫克特 Ben Hecht
◎演  员 罗伯特·米彻姆 Robert Mitchum
       简·西蒙斯 Jean Simmons
       Brick Sullivan Brick Sullivan
       迈克·拉里 Mike Lally
       格兰丁·罗德 Grandon Rhodes
       皮特·凯莱特 Pete Kellett
       Marvin Jones Marvin Jones
       Lewis Martin Lewis Martin
       Herbert Lytton Herbert Lytton
       Cora Shannon Cora Shannon
       肯尼斯·托比 Kenneth Tobey
       Ralph Volkie Ralph Volkie
       George Sherwood George Sherwood
       Buck Young Buck Young
       杰弗里·塞尔 Jeffrey Sayre
       卡尔斯克洛弗 Carl Sklover
       亚历克斯·格里 Alex Gerry
       拉里·J·布莱克 Larry J. Blake
       Raymond Greenleaf Raymond Greenleaf
       列昂埃姆斯 Leon Ames
       格特鲁德·阿斯特 Gertrude Astor
       吉姆·巴克斯 Jim Backus
       查尔斯·坦嫩 Charles Tannen
       罗伯特·吉斯特 Robert Gist
       莫娜·弗里曼 Mona Freeman
       芭芭拉·欧内尔 Barbara O'Neil
       赫伯特·马歇尔 Herbert Marshall
       格里夫·巴尼特 Griff Barnett
       特蕾莎.哈里斯 Theresa Harris
       贝丝·弗劳尔斯 Bess Flowers
       摩根·法利 Morgan Farley
       弗兰克·奥康纳 Frank O'Connor
       Mary Jane Carey Mary Jane Carey
       Morgan Brown Morgan Brown
       Jack Chefe Jack Chefe
       Lucille Barkley Lucille Barkley
       奥托·普雷明格 Otto Preminger
       迪米特里·迪奥姆金 Dimitri Tiomkin
       老哈里·斯特拉德林 Harry Stradling Sr.
       弗雷德里克·努德森 Frederic Knudtson
       卡罗尔·克拉克 Carroll Clark
       阿尔伯特·S.达格斯蒂诺 Albert S. D'Agostino
       达雷尔·西尔维拉 Darrell Silvera
       杰克·米尔斯 Jack Mills
       Michael Woulfe Michael Woulfe
       Mel Berns Mel Berns
       拉里·热尔曼 Larry Germain
       Fred Fleck Fred Fleck
       克莱姆·波特曼 Clem Portman
◎简  介

  弗兰克(罗伯特·米彻姆 Robert Mitchum 饰)是一位救护车司机,一天,一位名叫凯瑟琳(芭芭拉·欧内尔 Barbara O'Neil 饰)的妇人由于煤气中毒而坐上了弗兰克驾驶的救护车,弗兰克就此熟悉了凯瑟琳的女儿戴安(简·西蒙斯 Jean Simmons 饰),戴安是一个既美丽又聪明的女孩,弗兰克很快就坠入了情网,而戴安似乎也对弗兰克分外热情,没过量久,弗兰克就辞掉了工作,成为了戴安家的司机。                                    
                                随着时候的推移,戴安所表示出的各种异于凡人的行为和她家中凝重诡异的氛围让弗兰克起头思疑,这个女孩底子没有表面看起来的那末天真烂缦,当他想要逃离这个庞大的漩涡之时才发现,自己早已经无处可逃。
  1. Video
  2. ID                                       : 1
  3. Format                                   : AVC
  4. Format/Info                              : Advanced Video Codec
  5. Format profile                           : [email protected]
  6. Format settings                          : CABAC / 4 Ref Frames
  7. Format settings, CABAC                   : Yes
  8. Format settings, Reference frames        : 4 frames
  9. Codec ID                                 : V_MPEG4/ISO/AVC
  10. Duration                                 : 1 h 27 min
  11. Bit rate mode                            : Variable
  12. Bit rate                                 : 8 122 kb/s
  13. Maximum bit rate                         : 12.0 Mb/s
  14. Width                                    : 1 920 pixels
  15. Height                                   : 1 080 pixels
  16. Display aspect ratio                     : 16:9
  17. Frame rate mode                          : Constant
  18. Frame rate                               : 50.000 FPS
  19. Color space                              : YUV
  20. Chroma subsampling                       : 4:2:0
  21. Bit depth                                : 8 bits
  22. Scan type                                : Progressive
  23. Bits/(Pixel*Frame)                       : 0.078
  24. Stream size                              : 4.96 GiB (98%)
  25. Language                                 : English
  26. Default                                  : Yes
  27. Forced                                   : No
  28. Color range                              : Limited
  29. Color primaries                          : BT.709
  30. Transfer characteristics                 : BT.709
  31. Matrix coefficients                      : BT.709
  32. Audio
  33. ID                                       : 2
  34. Format                                   : AAC LC
  35. Format/Info                              : Advanced Audio Codec Low Complexity
  36. Codec ID                                 : A_AAC-2
  37. Duration                                 : 1 h 27 min
  38. Bit rate                                 : 128 kb/s
  39. Channel(s)                               : 2 channels
  40. Channel layout                           : L R
  41. Sampling rate                            : 48.0 kHz
  42. Frame rate                               : 46.875 FPS (1024 SPF)
  43. Compression mode                         : Lossy
  44. Stream size                              : 80.0 MiB (2%)
  45. Language                                 : English
  46. Default                                  : Yes
  47. Forced                                   : No
  48. Text
  49. ID                                       : 3
  50. Format                                   : UTF-8
  51. Codec ID                                 : S_TEXT/UTF8
  52. Codec ID/Info                            : UTF-8 Plain Text
  53. Duration                                 : 1 h 25 min
  54. Bit rate                                 : 227 b/s
  55. Frame rate                               : 0.339 FPS
  56. Count of elements                        : 1748
  57. Stream size                              : 143 KiB (0%)
  58. Language                                 : English
  59. Default                                  : Yes
  60. Forced                                   : No
复制代码






                                       
                                       

                                       
                                       
                                       




回复

使用道具 举报

懒得打字嘛,点击右侧快捷回复 【右侧内容,后台自定义】
您需要登录后才可以回帖 登录 | 立即加入

本版积分规则

Archiver|小黑屋| 蓝光电影网 |网站地图

Copyright © 2021 Comsenz Inc. Powered by 蓝光电影网

蓝光电影网

本站内容由用户自主分享和转载自互联网,转载目的在于传递更多信息,并不代表本网赞同其观点和对其真实性负责。

如有侵权、违反国家法律政策行为,请联系我们,我们会第一时间及时清除和处理!

举报反馈邮箱:[email protected]

快速回复 返回顶部 返回列表