找回密码

蓝光电影网

查看: 31|回复: 0

[喜剧] 摇滚外星人的旅程 Voyage.of.the.Rock.Aliens.1984.REMASTERED.720p.BluRay.x264-YAMG 6.63GB

[复制链接]
蓝光币
886
发表于 2022-7-28 12:57:41 | 显示全部楼层 |阅读模式


◎译  名 摇滚外星人的旅程
◎片  名 Voyage of the Rock Aliens
◎年  代 1984
◎产  地 美国
◎类  别 笑剧 / 科幻 / 歌舞
◎语  言 英语
◎上映日期 1988-02-08
◎IMDb链接 https://www.imdb.com/title/tt0096402/
◎豆瓣链接 https://movie.douban.com/subject/4116443/
◎片  长 97 分钟
◎导  演 詹姆斯·法戈 James Fargo (id:1023345)
◎演  员 Marc Jackson Marc Jackson (id:1183547)
       Julian 'Sifu' T. Reid Julian 'Sifu' T. Reid (id:1174597)
       Tom Nolan Tom Nolan (id:1130228)
       艾莉森·拉·普拉卡 Alison La Placa (id:1114361)
       迈克尔·贝里曼 Michael Berryman (id:1064035)
       皮娅·扎多拉 Pia Zadora (id:1056082)
       克莱格·谢佛 Craig Sheffer (id:1048157)
       鲁思·戈登 Ruth Gordon (id:1041189)
       杰梅因·杰克逊 Jermaine Jackson (id:1036708)
       彼特·库伦 Peter Cullen (id:1025212)
       Peter Stelzer Peter Stelzer (id:1298348)
       Mike Curb Mike Curb (id:1015081)
       Jack White Jack White (id:1164772)
       吉尔伯特·泰勒 Gilbert Taylor (id:1003501)
       Rose Librizzi Rose Librizzi (id:1290014)
       Conrad Irving Conrad Irving (id:1287379)
       Stuart Fleming Stuart Fleming (id:1026288)
       Barbara Gelman Barbara Gelman (id:1284691)
       Peter Chesney Peter Chesney (id:1280616)
◎简  介

  Aliens land in the town of "Speelburgh" searching for the source of rock & roll. They find trouble with Dee Dee, Frankie and the pack.
  1. Video
  2. ID                                       : 1
  3. Format                                   : AVC
  4. Format/Info                              : Advanced Video Codec
  5. Format profile                           : [email protected]
  6. Format settings                          : CABAC / 9 Ref Frames
  7. Format settings, CABAC                   : Yes
  8. Format settings, Reference frames        : 9 frames
  9. Codec ID                                 : V_MPEG4/ISO/AVC
  10. Duration                                 : 1 h 35 min
  11. Bit rate                                 : 8 377 kb/s
  12. Width                                    : 1 280 pixels
  13. Height                                   : 690 pixels
  14. Display aspect ratio                     : 1.85:1
  15. Frame rate mode                          : Constant
  16. Frame rate                               : 23.976 (24000/1001/189150) FPS
  17. Color space                              : YUV
  18. Chroma subsampling                       : 4:2:0
  19. Bit depth                                : 8 bits
  20. Scan type                                : Progressive
  21. Bits/(Pixel*Frame)                       : 0.396
  22. Stream size                              : 5.61 GiB (85%)
  23. Writing library                          : x264 core 164 r3095 baee400
  24. Encoding settings                        : cabac=1 / ref=9 / deblock=1:-3:-3 / analyse=0x3:0x133 / me=umh / subme=10 / psy=1 / psy_rd=1.00:0.00 / mixed_ref=1 / me_range=32 / chroma_me=1 / trellis=2 / 8x8dct=1 / cqm=0 / deadzone=21,11 / fast_pskip=0 / chroma_qp_offset=-2 / threads=22 / lookahead_threads=3 / sliced_threads=0 / nr=0 / decimate=0 / interlaced=0 / bluray_compat=0 / constrained_intra=0 / bframes=8 / b_pyramid=2 / b_adapt=2 / b_bias=0 / direct=3 / weightb=1 / open_gop=0 / weightp=2 / keyint=250 / keyint_min=23 / scenecut=40 / intra_refresh=0 / rc=crf / mbtree=0 / crf=20.0 / qcomp=0.60 / qpmin=0 / qpmax=69 / qpstep=4 / ip_ratio=1.40 / pb_ratio=1.30 / aq=3:0.60
  25. Language                                 : English
  26. Default                                  : Yes
  27. Forced                                   : No
  28. Color range                              : Limited
  29. Matrix coefficients                      : BT.709

  30. Audio
  31. ID                                       : 2
  32. Format                                   : FLAC
  33. Format/Info                              : Free Lossless Audio Codec
  34. Codec ID                                 : A_FLAC
  35. Duration                                 : 1 h 35 min
  36. Bit rate mode                            : Variable
  37. Bit rate                                 : 1 516 kb/s
  38. Channel(s)                               : 6 channels
  39. Channel layout                           : L R C LFE Ls Rs
  40. Sampling rate                            : 48.0 kHz
  41. Frame rate                               : 11.719 FPS (4096 SPF)
  42. Bit depth                                : 24 bits
  43. Compression mode                         : Lossless
  44. Stream size                              : 1.02 GiB (15%)
  45. Title                                    : English
  46. Writing library                          : libFLAC 1.3.3 (UTC 2019-08-04)
  47. Language                                 : English
  48. Default                                  : Yes
  49. Forced                                   : No

  50. Text #1
  51. ID                                       : 3
  52. Format                                   : UTF-8
  53. Codec ID                                 : S_TEXT/UTF8
  54. Codec ID/Info                            : UTF-8 Plain Text
  55. Duration                                 : 1 h 34 min
  56. Bit rate                                 : 61 b/s
  57. Count of elements                        : 1364
  58. Stream size                              : 43.0 KiB (0%)
  59. Title                                    : English
  60. Language                                 : English
  61. Default                                  : No
  62. Forced                                   : No

  63. Text #2
  64. ID                                       : 4
  65. Format                                   : UTF-8
  66. Codec ID                                 : S_TEXT/UTF8
  67. Codec ID/Info                            : UTF-8 Plain Text
  68. Duration                                 : 1 h 35 min
  69. Bit rate                                 : 66 b/s
  70. Count of elements                        : 1546
  71. Stream size                              : 46.6 KiB (0%)
  72. Title                                    : English SDH
  73. Language                                 : English
  74. Default                                  : No
  75. Forced                                   : No

  76. Text #3
  77. ID                                       : 5
  78. Format                                   : PGS
  79. Muxing mode                              : zlib
  80. Codec ID                                 : S_HDMV/PGS
  81. Codec ID/Info                            : Picture based subtitle format used on BDs/HD-DVDs
  82. Duration                                 : 1 h 35 min
  83. Bit rate                                 : 34.5 kb/s
  84. Count of elements                        : 3093
  85. Stream size                              : 23.6 MiB (0%)
  86. Title                                    : English SDH PGS
  87. Language                                 : English
  88. Default                                  : No
  89. Forced                                   : No

  90. Menu
  91. 00:00:00.000                             : :Chapter 01
  92. 00:21:51.811                             : :Chapter 02
  93. 00:42:15.533                             : :Chapter 03
  94. 00:58:50.027                             : :Chapter 04
  95. 01:17:14.630                             : :Chapter 05
复制代码





                                       
                                       

                                       
                                       
                                       




回复

使用道具 举报

懒得打字嘛,点击右侧快捷回复 【右侧内容,后台自定义】
您需要登录后才可以回帖 登录 | 立即加入

本版积分规则

Archiver|小黑屋| 蓝光电影网 |网站地图

Copyright © 2021 Comsenz Inc. Powered by 蓝光电影网

蓝光电影网

本站内容由用户自主分享和转载自互联网,转载目的在于传递更多信息,并不代表本网赞同其观点和对其真实性负责。

如有侵权、违反国家法律政策行为,请联系我们,我们会第一时间及时清除和处理!

举报反馈邮箱:[email protected]

快速回复 返回顶部 返回列表