找回密码

蓝光电影网

查看: 16|回复: 0

[剧情] 李尔王 King.Lear.1970.1080p.WEBRip.x264-RARBG 2.52GB

[复制链接]
蓝光币
886
发表于 2022-7-28 19:15:14 | 显示全部楼层 |阅读模式


◎标  题 李尔王
◎片  名 King Lear
◎年  代 1971
◎产  地 英国 / 丹麦
◎类  别 剧情
◎语  言 英语
◎上映日期 1971-02-04(英国)
◎IMDb评分 7.2/10 (850人评价)
◎IMDb链接 https://www.imdb.com/title/tt0067306/
◎豆瓣评分 7.6/10 (1364人评价)
◎豆瓣链接 https://movie.douban.com/subject/1304635/
◎片  长 137 分钟
◎导  演 彼得·布鲁克 Peter Brook
◎编  剧 彼得·布鲁克 Peter Brook
       威廉·莎士比亚 William Shakespeare
◎演  员 保罗·斯科菲尔德 Paul Scofield
       西里尔·库萨克 Cyril Cusack
       苏珊·恩格尔 Susan Engel
       帕特里克·马基 Patrick Magee
       艾琳·沃斯 Irene Worth
       汤姆·弗莱明 Tom Fleming
       安妮-利塞·加博尔德 Anne-Lise Gabold
       伊恩·霍格 Ian Hogg
       杰克·麦高恩 Jack MacGowran
       艾伦·韦布 Alan Webb
       索伦·埃伦格·延森 Søren Elung Jensen
       Mogens Skot-Hansen Mogens Skot-Hansen
       Michael Birkett Michael Birkett
       Henning Kristiansen Henning Kristiansen
       Kasper Schyberg Kasper Schyberg
       Georges Wakhévitch Georges Wakhévitch
◎简  介

  李尔王(保罗·斯科菲尔德 Paul Scofield 饰)年龄已高,他决议将广袤的河山分给自己的三个女儿科迪莉亚(安妮-利塞·加博尔德 Anne-Lise Gabold 饰)、格纳利尔和里根(苏珊·恩格尔 Susan Engel 饰)。李尔王让三个女儿说出各自心中对父王的爱戴,格纳利尔和里根极尽蜜语甘言之所能,获得了李尔王的赞美,小女儿科迪莉亚质朴而老实,反而遭到了无情的驱逐。                                    
                                落空了故里的科迪莉亚成为了法国的王后,而获得了父亲大片国土的大女儿和二女儿则将李尔王赶出了家门。直到漂泊荒原无处可去,李尔王才大白自己犯了天大的毛病,他一边指责自己的愚昧,一边心痛科迪莉亚的遭受。得知了李尔王的际遇,科迪莉亚构造了军队预备向故乡打击,不幸的是,军队遭受惨败,科迪莉亚也遭到了拘系。终极,科迪莉亚被正法,年老的李尔王在疾苦中亦跟随而去。
  1. Video
  2. ID                                       : 1
  3. Format                                   : AVC
  4. Format/Info                              : Advanced Video Codec
  5. Format profile                           : [email protected]
  6. Format settings                          : CABAC / 4 Ref Frames
  7. Format settings, CABAC                   : Yes
  8. Format settings, Reference frames        : 4 frames
  9. Codec ID                                 : avc1
  10. Codec ID/Info                            : Advanced Video Coding
  11. Duration                                 : 2 h 12 min
  12. Bit rate                                 : 2 500 kb/s
  13. Width                                    : 1 436 pixels
  14. Height                                   : 1 080 pixels
  15. Display aspect ratio                     : 4:3
  16. Frame rate mode                          : Constant
  17. Frame rate                               : 25.000 FPS
  18. Color space                              : YUV
  19. Chroma subsampling                       : 4:2:0
  20. Bit depth                                : 8 bits
  21. Scan type                                : Progressive
  22. Bits/(Pixel*Frame)                       : 0.064
  23. Stream size                              : 2.31 GiB (92%)
  24. Writing library                          : x264 core 152 r2851M ba24899
  25. Encoding settings                        : cabac=1 / ref=4 / deblock=1:-1:-1 / analyse=0x3:0x113 / me=umh / subme=9 / psy=1 / psy_rd=1.00:0.15 / mixed_ref=1 / me_range=24 / chroma_me=1 / trellis=2 / 8x8dct=1 / cqm=0 / deadzone=21,11 / fast_pskip=1 / chroma_qp_offset=-3 / threads=16 / lookahead_threads=4 / sliced_threads=0 / nr=0 / decimate=1 / interlaced=0 / bluray_compat=0 / constrained_intra=0 / bframes=3 / b_pyramid=2 / b_adapt=2 / b_bias=0 / direct=3 / weightb=1 / open_gop=0 / weightp=2 / keyint=250 / keyint_min=25 / scenecut=40 / intra_refresh=0 / rc_lookahead=50 / rc=2pass / mbtree=1 / bitrate=2500 / ratetol=1.0 / qcomp=0.60 / qpmin=0 / qpmax=69 / qpstep=4 / cplxblur=20.0 / qblur=0.5 / vbv_maxrate=31250 / vbv_bufsize=31250 / nal_hrd=none / filler=0 / ip_ratio=1.40 / aq=3:1.00
  26. Encoded date                             : UTC 2022-07-28 10:06:00
  27. Tagged date                              : UTC 2022-07-28 10:06:00
  28. Codec configuration box                  : avcC
  29. Audio
  30. ID                                       : 2
  31. Format                                   : AAC LC
  32. Format/Info                              : Advanced Audio Codec Low Complexity
  33. Codec ID                                 : mp4a-40-2
  34. Duration                                 : 2 h 12 min
  35. Bit rate mode                            : Constant
  36. Bit rate                                 : 224 kb/s
  37. Channel(s)                               : 2 channels
  38. Channel layout                           : L R
  39. Sampling rate                            : 48.0 kHz
  40. Frame rate                               : 46.875 FPS (1024 SPF)
  41. Compression mode                         : Lossy
  42. Stream size                              : 212 MiB (8%)
  43. Language                                 : English
  44. Default                                  : Yes
  45. Alternate group                          : 1
  46. Encoded date                             : UTC 2022-07-28 10:06:00
  47. Tagged date                              : UTC 2022-07-28 10:06:00
复制代码







                                       
                                       

                                       
                                       
                                       




回复

使用道具 举报

懒得打字嘛,点击右侧快捷回复 【右侧内容,后台自定义】
您需要登录后才可以回帖 登录 | 立即加入

本版积分规则

Archiver|小黑屋| 蓝光电影网 |网站地图

Copyright © 2021 Comsenz Inc. Powered by 蓝光电影网

蓝光电影网

本站内容由用户自主分享和转载自互联网,转载目的在于传递更多信息,并不代表本网赞同其观点和对其真实性负责。

如有侵权、违反国家法律政策行为,请联系我们,我们会第一时间及时清除和处理!

举报反馈邮箱:[email protected]

快速回复 返回顶部 返回列表