找回密码

蓝光电影网

查看: 448|回复: 5

[2160p] 灰影人 The.Gray.Man.2022.2160p.NF.WEBRip.x265.10bit.SDR.DDP5.1.Atmos-CM 19.87GB

[复制链接]
蓝光币
1020
发表于 2022-7-28 19:48:57 | 显示全部楼层 |阅读模式


◎标  题 灰影人
◎译  名 灰色人 / 灰人
◎片  名 The Gray Man
◎年  代 2022
◎产  地 美国
◎类  别 行动 / 惊悚
◎语  言 英语
◎上映日期 2022-07-15(美国) / 2022-07-22(美国收集)
◎IMDb评分 6.8/10 (2421人评价)
◎IMDb链接 https://www.imdb.com/title/tt1649418/
◎豆瓣链接 https://movie.douban.com/subject/7051806/
◎片  长 122分钟
◎导  演 安东尼·罗素 Anthony Russo
       乔·罗素 Joe Russo
◎编  剧 乔·罗素 Joe Russo
       克里斯托弗·马库斯 Christopher Markus
       斯蒂芬·麦克菲利 Stephen McFeely
       马克·格里尼 Mark Greaney
◎演  员 瑞恩·高斯林 Ryan Gosling
       克里斯·埃文斯 Chris Evans
       安娜·德·阿玛斯 Ana de Armas
       雷吉-让·佩吉 Regé-Jean Page
       比利·鲍伯·松顿 Billy Bob Thornton
       杰西卡·亨维克 Jessica Henwick
       丹努什 Dhanush
       瓦格纳·马拉 Wagner Moura
       阿尔法·伍达德 Alfre Woodard
       茱莉亚·巴特斯 Julia Butters
       卡兰·马尔韦 Callan Mulvey
       斯科特·黑兹 Scott Haze
       罗伯特·卡辛斯基 Robert Kazinsky
       道比·欧帕瑞 Deobia Oparei
       艾米·伊库瓦克 Eme Ikwuakor
       吉米·让-刘易斯 Jimmy Jean-Louis
       Daz Crawford Daz Crawford
       凯伦金贝克 Karen Jin Beck
       凯特·布朗伯格 Kate Blumberg
       马修·弗林·贝罗斯 Matthew Flynn Bellows
       贝基·吴 Becky Wu
       肯德尔·威尔斯 Kendall Wells
       马丁·威廉·哈里斯 Martin William Harris
       纳迪夫·莫尔乔 Nadiv Molcho
       斯特芬·杰科 Steffen Dziczek
       玛丽亚·达金娜 Maria Darkina
       Kaipo Schwab Kaipo Schwab
       法乌齐·卜拉希米 Faouzi Brahimi
       Michel Carliez Michel Carliez
       乔·罗斯 Joe Roth
       朱迪安娜·马科夫斯基 Judianna Makovsky
◎简  介

  《灰影人》由Netflix和AGBO合制,剧情报告人称“灰影人”的寇特·詹特利(瑞恩·高斯林 饰)为中情局效命,特务代号“山岭六号”。上线唐纳德·菲茨罗伊(比利·鲍伯·松顿 饰)当初将他弄出联邦牢狱,让他成为局里钦点的精锐灭亡佣兵。现在风水轮流转,六号反倒沦为头号方针,中情局前同事洛伊德·汉森(克里斯·埃文斯 饰)为了铲除他,无所不用其极地策动全球围攻,奸细达妮·米兰达(安娜·德·阿玛斯 饰)却总能在他危在旦夕之际伸出援手。
  1. Video
  2. ID                                       : 1
  3. Format                                   : HEVC
  4. Format/Info                              : High Efficiency Video Coding
  5. Format profile                           : Main [email protected]@High
  6. Codec ID                                 : V_MPEGH/ISO/HEVC
  7. Duration                                 : 2 h 9 min
  8. Bit rate                                 : 21.3 Mb/s
  9. Width                                    : 3 840 pixels
  10. Height                                   : 1 608 pixels
  11. Display aspect ratio                     : 2.40:1
  12. Frame rate mode                          : Constant
  13. Frame rate                               : 24.000 FPS
  14. Color space                              : YUV
  15. Chroma subsampling                       : 4:2:0
  16. Bit depth                                : 10 bits
  17. Bits/(Pixel*Frame)                       : 0.144
  18. Stream size                              : 19.2 GiB (96%)
  19. Writing library                          : x265 3.4g73f96ff39:[Windows][GCC 11.0.0][64 bit] 10bit
  20. Encoding settings                        : cpuid=1111039 / frame-threads=3 / numa-pools=12 / wpp / no-pmode / no-pme / no-psnr / no-ssim / log-level=2 / input-csp=1 / input-res=3840x1608 / interlace=0 / total-frames=185810 / level-idc=51 / high-tier=1 / uhd-bd=0 / ref=5 / no-allow-non-conformance / repeat-headers / annexb / aud / hrd / info / hash=0 / no-temporal-layers / open-gop / min-keyint=23 / keyint=250 / gop-lookahead=0 / bframes=8 / b-adapt=2 / b-pyramid / bframe-bias=0 / rc-lookahead=40 / lookahead-slices=0 / scenecut=40 / hist-scenecut=0 / radl=0 / no-splice / no-intra-refresh / ctu=64 / min-cu-size=8 / no-rect / no-amp / max-tu-size=32 / tu-inter-depth=4 / tu-intra-depth=4 / limit-tu=4 / rdoq-level=2 / dynamic-rd=0.00 / no-ssim-rd / signhide / no-tskip / nr-intra=0 / nr-inter=0 / no-constrained-intra / strong-intra-smoothing / max-merge=4 / limit-refs=1 / limit-modes / me=3 / subme=4 / merange=48 / temporal-mvp / no-frame-dup / no-hme / weightp / weightb / no-analyze-src-pics / deblock=-3:-3 / no-sao / no-sao-non-deblock / rd=6 / selective-sao=0 / no-early-skip / rskip / no-fast-intra / no-tskip-fast / no-cu-lossless / b-intra / no-splitrd-skip / rdpenalty=0 / psy-rd=2.00 / psy-rdoq=1.00 / no-rd-refine / no-lossless / cbqpoffs=0 / crqpoffs=0 / rc=crf / crf=21.0 / qcomp=0.60 / qpstep=4 / stats-write=0 / stats-read=0 / vbv-maxrate=160000 / vbv-bufsize=160000 / vbv-init=0.9 / crf-max=0.0 / crf-min=0.0 / ipratio=1.30 / pbratio=1.20 / aq-mode=3 / aq-strength=1.00 / no-cutree / zone-count=0 / no-strict-cbr / qg-size=32 / no-rc-grain / qpmax=69 / qpmin=0 / no-const-vbv / sar=0 / overscan=0 / videoformat=5 / range=0 / colorprim=1 / transfer=1 / colormatrix=1 / chromaloc=0 / display-window=0 / cll=0,0 / min-luma=0 / max-luma=1023 / log2-max-poc-lsb=8 / vui-timing-info / vui-hrd-info / slices=1 / no-opt-qp-pps / no-opt-ref-list-length-pps / no-multi-pass-opt-rps / scenecut-bias=0.05 / hist-threshold=0.01 / no-opt-cu-delta-qp / no-aq-motion / no-hdr10 / no-hdr10-opt / no-dhdr10-opt / no-idr-recovery-sei / analysis-reuse-level=0 / analysis-save-reuse-level=0 / analysis-load-reuse-level=0 / scale-factor=0 / refine-intra=0 / refine-inter=0 / refine-mv=1 / refine-ctu-distortion=0 / no-limit-sao / ctu-info=0 / no-lowpass-dct / refine-analysis-type=0 / copy-pic=1 / max-ausize-factor=1.0 / no-dynamic-refine / no-single-sei / no-hevc-aq / no-svt / no-field / qp-adaptation-range=1.00 / no-scenecut-aware-qpconformance-window-offsets / right=0 / bottom=0 / decoder-max-rate=0
  21. Default                                  : Yes
  22. Forced                                   : No
  23. Color range                              : Limited
  24. Color primaries                          : BT.709
  25. Transfer characteristics                 : BT.709
  26. Matrix coefficients                      : BT.709
  27. Audio
  28. ID                                       : 2
  29. Format                                   : E-AC-3 JOC
  30. Format/Info                              : Enhanced AC-3 with Joint Object Coding
  31. Commercial name                          : Dolby Digital Plus with Dolby Atmos
  32. Codec ID                                 : A_EAC3
  33. Duration                                 : 2 h 9 min
  34. Bit rate mode                            : Constant
  35. Bit rate                                 : 768 kb/s
  36. Channel(s)                               : 6 channels
  37. Channel layout                           : L R C LFE Ls Rs
  38. Sampling rate                            : 48.0 kHz
  39. Frame rate                               : 31.250 FPS (1536 SPF)
  40. Compression mode                         : Lossy
  41. Stream size                              : 709 MiB (3%)
  42. Language                                 : English
  43. Service kind                             : Complete Main
  44. Default                                  : Yes
  45. Forced                                   : No
  46. Complexity index                         : 16
  47. Number of dynamic objects                : 15
  48. Bed channel count                        : 1 channel
  49. Bed channel configuration                : LFE
  50. Text #1
  51. ID                                       : 3
  52. Format                                   : UTF-8
  53. Codec ID                                 : S_TEXT/UTF8
  54. Codec ID/Info                            : UTF-8 Plain Text
  55. Duration                                 : 2 h 6 min
  56. Bit rate                                 : 58 b/s
  57. Frame rate                               : 0.239 FPS
  58. Count of elements                        : 1813
  59. Stream size                              : 54.5 KiB (0%)
  60. Title                                    : SDH
  61. Language                                 : English
  62. Default                                  : No
  63. Forced                                   : No
  64. Text #2
  65. ID                                       : 4
  66. Format                                   : UTF-8
  67. Codec ID                                 : S_TEXT/UTF8
  68. Codec ID/Info                            : UTF-8 Plain Text
  69. Duration                                 : 1 h 56 min
  70. Bit rate                                 : 50 b/s
  71. Frame rate                               : 0.196 FPS
  72. Count of elements                        : 1365
  73. Stream size                              : 42.6 KiB (0%)
  74. Language                                 : English
  75. Default                                  : No
  76. Forced                                   : No
  77. Text #3
  78. ID                                       : 5
  79. Format                                   : UTF-8
  80. Codec ID                                 : S_TEXT/UTF8
  81. Codec ID/Info                            : UTF-8 Plain Text
  82. Duration                                 : 2 h 6 min
  83. Bit rate                                 : 74 b/s
  84. Frame rate                               : 0.174 FPS
  85. Count of elements                        : 1313
  86. Stream size                              : 69.2 KiB (0%)
  87. Language                                 : Arabic
  88. Default                                  : No
  89. Forced                                   : No
  90. Text #4
  91. ID                                       : 6
  92. Format                                   : UTF-8
  93. Codec ID                                 : S_TEXT/UTF8
  94. Codec ID/Info                            : UTF-8 Plain Text
  95. Duration                                 : 2 h 6 min
  96. Bit rate                                 : 37 b/s
  97. Frame rate                               : 0.164 FPS
  98. Count of elements                        : 1242
  99. Stream size                              : 34.6 KiB (0%)
  100. Language                                 : Catalan
  101. Default                                  : No
  102. Forced                                   : No
  103. Text #5
  104. ID                                       : 7
  105. Format                                   : UTF-8
  106. Codec ID                                 : S_TEXT/UTF8
  107. Codec ID/Info                            : UTF-8 Plain Text
  108. Duration                                 : 2 h 6 min
  109. Bit rate                                 : 42 b/s
  110. Frame rate                               : 0.139 FPS
  111. Count of elements                        : 1051
  112. Stream size                              : 39.1 KiB (0%)
  113. Language                                 : Czech
  114. Default                                  : No
  115. Forced                                   : No
  116. Text #6
  117. ID                                       : 8
  118. Format                                   : UTF-8
  119. Codec ID                                 : S_TEXT/UTF8
  120. Codec ID/Info                            : UTF-8 Plain Text
  121. Duration                                 : 2 h 6 min
  122. Bit rate                                 : 38 b/s
  123. Frame rate                               : 0.166 FPS
  124. Count of elements                        : 1256
  125. Stream size                              : 35.6 KiB (0%)
  126. Language                                 : Danish
  127. Default                                  : No
  128. Forced                                   : No
  129. Text #7
  130. ID                                       : 9
  131. Format                                   : UTF-8
  132. Codec ID                                 : S_TEXT/UTF8
  133. Codec ID/Info                            : UTF-8 Plain Text
  134. Duration                                 : 2 h 6 min
  135. Bit rate                                 : 39 b/s
  136. Frame rate                               : 0.165 FPS
  137. Count of elements                        : 1251
  138. Stream size                              : 36.5 KiB (0%)
  139. Language                                 : German
  140. Default                                  : No
  141. Forced                                   : No
  142. Text #8
  143. ID                                       : 10
  144. Format                                   : UTF-8
  145. Codec ID                                 : S_TEXT/UTF8
  146. Codec ID/Info                            : UTF-8 Plain Text
  147. Duration                                 : 2 h 6 min
  148. Bit rate                                 : 68 b/s
  149. Frame rate                               : 0.157 FPS
  150. Count of elements                        : 1187
  151. Stream size                              : 63.0 KiB (0%)
  152. Language                                 : Greek
  153. Default                                  : No
  154. Forced                                   : No
  155. Text #9
  156. ID                                       : 11
  157. Format                                   : UTF-8
  158. Codec ID                                 : S_TEXT/UTF8
  159. Codec ID/Info                            : UTF-8 Plain Text
  160. Duration                                 : 2 h 0 min
  161. Bit rate                                 : 57 b/s
  162. Frame rate                               : 0.232 FPS
  163. Count of elements                        : 1679
  164. Stream size                              : 50.5 KiB (0%)
  165. Title                                    : SDH
  166. Language                                 : Spanish
  167. Default                                  : No
  168. Forced                                   : No
  169. Text #10
  170. ID                                       : 12
  171. Format                                   : UTF-8
  172. Codec ID                                 : S_TEXT/UTF8
  173. Codec ID/Info                            : UTF-8 Plain Text
  174. Duration                                 : 1 h 56 min
  175. Bit rate                                 : 48 b/s
  176. Frame rate                               : 0.181 FPS
  177. Count of elements                        : 1263
  178. Stream size                              : 41.0 KiB (0%)
  179. Language                                 : Spanish
  180. Default                                  : No
  181. Forced                                   : No
  182. Text #11
  183. ID                                       : 13
  184. Format                                   : UTF-8
  185. Codec ID                                 : S_TEXT/UTF8
  186. Codec ID/Info                            : UTF-8 Plain Text
  187. Duration                                 : 2 h 6 min
  188. Bit rate                                 : 36 b/s
  189. Frame rate                               : 0.171 FPS
  190. Count of elements                        : 1292
  191. Stream size                              : 33.5 KiB (0%)
  192. Language                                 : Basque
  193. Default                                  : No
  194. Forced                                   : No
  195. Text #12
  196. ID                                       : 14
  197. Format                                   : UTF-8
  198. Codec ID                                 : S_TEXT/UTF8
  199. Codec ID/Info                            : UTF-8 Plain Text
  200. Duration                                 : 2 h 6 min
  201. Bit rate                                 : 33 b/s
  202. Frame rate                               : 0.170 FPS
  203. Count of elements                        : 1288
  204. Stream size                              : 30.7 KiB (0%)
  205. Language                                 : Finnish
  206. Default                                  : No
  207. Forced                                   : No
  208. Text #13
  209. ID                                       : 15
  210. Format                                   : UTF-8
  211. Codec ID                                 : S_TEXT/UTF8
  212. Codec ID/Info                            : UTF-8 Plain Text
  213. Duration                                 : 2 h 6 min
  214. Bit rate                                 : 41 b/s
  215. Frame rate                               : 0.167 FPS
  216. Count of elements                        : 1267
  217. Stream size                              : 37.9 KiB (0%)
  218. Language                                 : fil
  219. Default                                  : No
  220. Forced                                   : No
  221. Text #14
  222. ID                                       : 16
  223. Format                                   : UTF-8
  224. Codec ID                                 : S_TEXT/UTF8
  225. Codec ID/Info                            : UTF-8 Plain Text
  226. Duration                                 : 2 h 6 min
  227. Bit rate                                 : 40 b/s
  228. Frame rate                               : 0.169 FPS
  229. Count of elements                        : 1275
  230. Stream size                              : 37.0 KiB (0%)
  231. Language                                 : French
  232. Default                                  : No
  233. Forced                                   : No
  234. Text #15
  235. ID                                       : 17
  236. Format                                   : UTF-8
  237. Codec ID                                 : S_TEXT/UTF8
  238. Codec ID/Info                            : UTF-8 Plain Text
  239. Duration                                 : 2 h 6 min
  240. Bit rate                                 : 37 b/s
  241. Frame rate                               : 0.172 FPS
  242. Count of elements                        : 1300
  243. Stream size                              : 34.2 KiB (0%)
  244. Language                                 : Galician
  245. Default                                  : No
  246. Forced                                   : No
  247. Text #16
  248. ID                                       : 18
  249. Format                                   : UTF-8
  250. Codec ID                                 : S_TEXT/UTF8
  251. Codec ID/Info                            : UTF-8 Plain Text
  252. Duration                                 : 2 h 6 min
  253. Bit rate                                 : 66 b/s
  254. Frame rate                               : 0.168 FPS
  255. Count of elements                        : 1272
  256. Stream size                              : 61.1 KiB (0%)
  257. Language                                 : Hebrew
  258. Default                                  : No
  259. Forced                                   : No
  260. Text #17
  261. ID                                       : 19
  262. Format                                   : UTF-8
  263. Codec ID                                 : S_TEXT/UTF8
  264. Codec ID/Info                            : UTF-8 Plain Text
  265. Duration                                 : 2 h 6 min
  266. Bit rate                                 : 37 b/s
  267. Frame rate                               : 0.169 FPS
  268. Count of elements                        : 1277
  269. Stream size                              : 34.2 KiB (0%)
  270. Language                                 : Croatian
  271. Default                                  : No
  272. Forced                                   : No
  273. Text #18
  274. ID                                       : 20
  275. Format                                   : UTF-8
  276. Codec ID                                 : S_TEXT/UTF8
  277. Codec ID/Info                            : UTF-8 Plain Text
  278. Duration                                 : 2 h 6 min
  279. Bit rate                                 : 36 b/s
  280. Frame rate                               : 0.168 FPS
  281. Count of elements                        : 1271
  282. Stream size                              : 33.7 KiB (0%)
  283. Language                                 : Hungarian
  284. Default                                  : No
  285. Forced                                   : No
  286. Text #19
  287. ID                                       : 21
  288. Format                                   : UTF-8
  289. Codec ID                                 : S_TEXT/UTF8
  290. Codec ID/Info                            : UTF-8 Plain Text
  291. Duration                                 : 2 h 6 min
  292. Bit rate                                 : 36 b/s
  293. Frame rate                               : 0.172 FPS
  294. Count of elements                        : 1303
  295. Stream size                              : 33.4 KiB (0%)
  296. Language                                 : Indonesian
  297. Default                                  : No
  298. Forced                                   : No
  299. Text #20
  300. ID                                       : 22
  301. Format                                   : UTF-8
  302. Codec ID                                 : S_TEXT/UTF8
  303. Codec ID/Info                            : UTF-8 Plain Text
  304. Duration                                 : 1 h 56 min
  305. Bit rate                                 : 40 b/s
  306. Frame rate                               : 0.183 FPS
  307. Count of elements                        : 1275
  308. Stream size                              : 34.2 KiB (0%)
  309. Language                                 : Italian
  310. Default                                  : No
  311. Forced                                   : No
  312. Text #21
  313. ID                                       : 23
  314. Format                                   : UTF-8
  315. Codec ID                                 : S_TEXT/UTF8
  316. Codec ID/Info                            : UTF-8 Plain Text
  317. Duration                                 : 2 h 6 min
  318. Bit rate                                 : 38 b/s
  319. Frame rate                               : 0.181 FPS
  320. Count of elements                        : 1370
  321. Stream size                              : 36.0 KiB (0%)
  322. Language                                 : Japanese
  323. Default                                  : No
  324. Forced                                   : No
  325. Text #22
  326. ID                                       : 24
  327. Format                                   : UTF-8
  328. Codec ID                                 : S_TEXT/UTF8
  329. Codec ID/Info                            : UTF-8 Plain Text
  330. Duration                                 : 2 h 6 min
  331. Bit rate                                 : 47 b/s
  332. Frame rate                               : 0.172 FPS
  333. Count of elements                        : 1305
  334. Stream size                              : 43.8 KiB (0%)
  335. Language                                 : Korean
  336. Default                                  : No
  337. Forced                                   : No
  338. Text #23
  339. ID                                       : 25
  340. Format                                   : UTF-8
  341. Codec ID                                 : S_TEXT/UTF8
  342. Codec ID/Info                            : UTF-8 Plain Text
  343. Duration                                 : 2 h 6 min
  344. Bit rate                                 : 38 b/s
  345. Frame rate                               : 0.166 FPS
  346. Count of elements                        : 1255
  347. Stream size                              : 35.4 KiB (0%)
  348. Language                                 : Malay
  349. Default                                  : No
  350. Forced                                   : No
  351. Text #24
  352. ID                                       : 26
  353. Format                                   : UTF-8
  354. Codec ID                                 : S_TEXT/UTF8
  355. Codec ID/Info                            : UTF-8 Plain Text
  356. Duration                                 : 2 h 6 min
  357. Bit rate                                 : 34 b/s
  358. Frame rate                               : 0.143 FPS
  359. Count of elements                        : 1083
  360. Stream size                              : 31.6 KiB (0%)
  361. Language                                 : Norwegian Bokmal
  362. Default                                  : No
  363. Forced                                   : No
  364. Text #25
  365. ID                                       : 27
  366. Format                                   : UTF-8
  367. Codec ID                                 : S_TEXT/UTF8
  368. Codec ID/Info                            : UTF-8 Plain Text
  369. Duration                                 : 2 h 6 min
  370. Bit rate                                 : 37 b/s
  371. Frame rate                               : 0.137 FPS
  372. Count of elements                        : 1033
  373. Stream size                              : 34.8 KiB (0%)
  374. Language                                 : Dutch
  375. Default                                  : No
  376. Forced                                   : No
  377. Text #26
  378. ID                                       : 28
  379. Format                                   : UTF-8
  380. Codec ID                                 : S_TEXT/UTF8
  381. Codec ID/Info                            : UTF-8 Plain Text
  382. Duration                                 : 2 h 6 min
  383. Bit rate                                 : 37 b/s
  384. Frame rate                               : 0.168 FPS
  385. Count of elements                        : 1269
  386. Stream size                              : 35.0 KiB (0%)
  387. Language                                 : Polish
  388. Default                                  : No
  389. Forced                                   : No
  390. Text #27
  391. ID                                       : 29
  392. Format                                   : UTF-8
  393. Codec ID                                 : S_TEXT/UTF8
  394. Codec ID/Info                            : UTF-8 Plain Text
  395. Duration                                 : 1 h 56 min
  396. Bit rate                                 : 44 b/s
  397. Frame rate                               : 0.181 FPS
  398. Count of elements                        : 1261
  399. Stream size                              : 38.0 KiB (0%)
  400. Language                                 : Portuguese
  401. Default                                  : No
  402. Forced                                   : No
  403. Text #28
  404. ID                                       : 30
  405. Format                                   : UTF-8
  406. Codec ID                                 : S_TEXT/UTF8
  407. Codec ID/Info                            : UTF-8 Plain Text
  408. Duration                                 : 2 h 0 min
  409. Bit rate                                 : 58 b/s
  410. Frame rate                               : 0.239 FPS
  411. Count of elements                        : 1733
  412. Stream size                              : 52.1 KiB (0%)
  413. Title                                    : Brazilian SDH
  414. Language                                 : Portuguese
  415. Default                                  : No
  416. Forced                                   : No
  417. Text #29
  418. ID                                       : 31
  419. Format                                   : UTF-8
  420. Codec ID                                 : S_TEXT/UTF8
  421. Codec ID/Info                            : UTF-8 Plain Text
  422. Duration                                 : 1 h 56 min
  423. Bit rate                                 : 47 b/s
  424. Frame rate                               : 0.184 FPS
  425. Count of elements                        : 1286
  426. Stream size                              : 40.1 KiB (0%)
  427. Title                                    : Brazilian
  428. Language                                 : Portuguese
  429. Default                                  : No
  430. Forced                                   : No
  431. Text #30
  432. ID                                       : 32
  433. Format                                   : UTF-8
  434. Codec ID                                 : S_TEXT/UTF8
  435. Codec ID/Info                            : UTF-8 Plain Text
  436. Duration                                 : 2 h 6 min
  437. Bit rate                                 : 45 b/s
  438. Frame rate                               : 0.160 FPS
  439. Count of elements                        : 1210
  440. Stream size                              : 41.8 KiB (0%)
  441. Language                                 : Romanian
  442. Default                                  : No
  443. Forced                                   : No
  444. Text #31
  445. ID                                       : 33
  446. Format                                   : UTF-8
  447. Codec ID                                 : S_TEXT/UTF8
  448. Codec ID/Info                            : UTF-8 Plain Text
  449. Duration                                 : 2 h 6 min
  450. Bit rate                                 : 61 b/s
  451. Frame rate                               : 0.172 FPS
  452. Count of elements                        : 1301
  453. Stream size                              : 57.3 KiB (0%)
  454. Language                                 : Russian
  455. Default                                  : No
  456. Forced                                   : No
  457. Text #32
  458. ID                                       : 34
  459. Format                                   : UTF-8
  460. Codec ID                                 : S_TEXT/UTF8
  461. Codec ID/Info                            : UTF-8 Plain Text
  462. Duration                                 : 2 h 6 min
  463. Bit rate                                 : 37 b/s
  464. Frame rate                               : 0.124 FPS
  465. Count of elements                        : 940
  466. Stream size                              : 34.2 KiB (0%)
  467. Language                                 : Swedish
  468. Default                                  : No
  469. Forced                                   : No
  470. Text #33
  471. ID                                       : 35
  472. Format                                   : UTF-8
  473. Codec ID                                 : S_TEXT/UTF8
  474. Codec ID/Info                            : UTF-8 Plain Text
  475. Duration                                 : 2 h 6 min
  476. Bit rate                                 : 94 b/s
  477. Frame rate                               : 0.173 FPS
  478. Count of elements                        : 1311
  479. Stream size                              : 87.6 KiB (0%)
  480. Language                                 : Thai
  481. Default                                  : No
  482. Forced                                   : No
  483. Text #34
  484. ID                                       : 36
  485. Format                                   : UTF-8
  486. Codec ID                                 : S_TEXT/UTF8
  487. Codec ID/Info                            : UTF-8 Plain Text
  488. Duration                                 : 2 h 6 min
  489. Bit rate                                 : 40 b/s
  490. Frame rate                               : 0.140 FPS
  491. Count of elements                        : 1060
  492. Stream size                              : 37.0 KiB (0%)
  493. Language                                 : Turkish
  494. Default                                  : No
  495. Forced                                   : No
  496. Text #35
  497. ID                                       : 37
  498. Format                                   : UTF-8
  499. Codec ID                                 : S_TEXT/UTF8
  500. Codec ID/Info                            : UTF-8 Plain Text
  501. Duration                                 : 2 h 6 min
  502. Bit rate                                 : 63 b/s
  503. Frame rate                               : 0.169 FPS
  504. Count of elements                        : 1278
  505. Stream size                              : 59.0 KiB (0%)
  506. Language                                 : Ukrainian
  507. Default                                  : No
  508. Forced                                   : No
  509. Text #36
  510. ID                                       : 38
  511. Format                                   : UTF-8
  512. Codec ID                                 : S_TEXT/UTF8
  513. Codec ID/Info                            : UTF-8 Plain Text
  514. Duration                                 : 2 h 6 min
  515. Bit rate                                 : 55 b/s
  516. Frame rate                               : 0.168 FPS
  517. Count of elements                        : 1272
  518. Stream size                              : 51.1 KiB (0%)
  519. Language                                 : Vietnamese
  520. Default                                  : No
  521. Forced                                   : No
  522. Text #37
  523. ID                                       : 39
  524. Format                                   : UTF-8
  525. Codec ID                                 : S_TEXT/UTF8
  526. Codec ID/Info                            : UTF-8 Plain Text
  527. Duration                                 : 2 h 6 min
  528. Bit rate                                 : 44 b/s
  529. Frame rate                               : 0.172 FPS
  530. Count of elements                        : 1303
  531. Stream size                              : 41.4 KiB (0%)
  532. Title                                    : Simplified
  533. Language                                 : Chinese
  534. Default                                  : No
  535. Forced                                   : No
  536. Text #38
  537. ID                                       : 40
  538. Format                                   : UTF-8
  539. Codec ID                                 : S_TEXT/UTF8
  540. Codec ID/Info                            : UTF-8 Plain Text
  541. Duration                                 : 2 h 6 min
  542. Bit rate                                 : 39 b/s
  543. Frame rate                               : 0.178 FPS
  544. Count of elements                        : 1348
  545. Stream size                              : 36.4 KiB (0%)
  546. Title                                    : Traditional
  547. Language                                 : Chinese
  548. Default                                  : No
  549. Forced                                   : No
复制代码




                                       
                                       

                                       
                                       
                                       




回复

使用道具 举报

蓝光币
289
发表于 2022-7-28 21:52:30 | 显示全部楼层
楼主发贴辛苦了,谢谢楼主分享!我觉得蓝光电影网是注册对了!
回复 支持 反对

使用道具 举报

蓝光币
132
发表于 2022-7-29 08:32:08 | 显示全部楼层

其实我一直觉得楼主的品味不错!呵呵!蓝光电影网太棒了!
回复 支持 反对

使用道具 举报

蓝光币
2129
发表于 2022-7-29 11:27:11 | 显示全部楼层

楼主太厉害了!楼主,电影应该很好看我觉得蓝光电影网真是个好地方!
回复 支持 反对

使用道具 举报

蓝光币
107
发表于 2022-7-29 17:22:22 | 显示全部楼层

楼主太厉害了!楼主,电影应该很好看我觉得蓝光电影网真是个好地方!
回复 支持 反对

使用道具 举报

蓝光币
29
发表于 2022-7-30 09:29:50 | 显示全部楼层
感谢楼主辛苦上传!!!!!!!!!!
回复 支持 反对

使用道具 举报

懒得打字嘛,点击右侧快捷回复 【右侧内容,后台自定义】
您需要登录后才可以回帖 登录 | 立即加入

本版积分规则

Archiver|小黑屋| 蓝光电影网 |网站地图

Copyright © 2021 Comsenz Inc. Powered by 蓝光电影网

蓝光电影网

本站内容由用户自主分享和转载自互联网,转载目的在于传递更多信息,并不代表本网赞同其观点和对其真实性负责。

如有侵权、违反国家法律政策行为,请联系我们,我们会第一时间及时清除和处理!

举报反馈邮箱:[email protected]

快速回复 返回顶部 返回列表