找回密码

蓝光电影网

查看: 16|回复: 0

[剧情] 孩子在看着我们 The.Children.Are.Watching.Us.1944.ITALIAN.ENSUBBED.1080p.WEBRip.AAC2.0.x264-KUCHU 3.31GB

[复制链接]
蓝光币
886
发表于 2022-7-28 19:50:31 | 显示全部楼层 |阅读模式


◎标  题 孩子在看着我们
◎译  名 孩子们注视着我们 / The Children Are Watching Us / The Little Martyr
◎片  名 I bambini ci guardano
◎年  代 1944
◎产  地 意大利
◎类  别 剧情
◎语  言 意大利语
◎上映日期 1944-10-27
◎IMDb评分 7.7/10 (2750人评价)
◎IMDb链接 https://www.imdb.com/title/tt0034493/
◎豆瓣评分 8.2/10 (1121人评价)
◎豆瓣链接 https://movie.douban.com/subject/1294236/
◎片  长 84 分钟
◎导  演 维托里奥·德西卡 Vittorio De Sica
◎编  剧 切萨雷·朱利奥·维奥拉 Cesare Giulio Viola
       切萨雷·扎瓦蒂尼 Cesare Zavattini
       阿道夫·弗兰奇 Adolfo Franci
       盖拉尔多·盖拉尔迪 Gherardo Gherardi
       维托里奥·德西卡 Vittorio De Sica
◎演  员 埃米利奥齐戈里 Emilio Cigoli
       卢恰诺·德·安布罗西 Luciano De Ambrosis
       伊萨·波拉 Isa Pola
       阿德里亚诺·里莫尔迪 Adriano Rimoldi
       约内·弗里杰里奥 Jone Frigerio
       迪娜·佩尔贝利尼 Dina Perbellini
       泰克拉·斯卡拉诺 Tecla Scarano
       Giovanna Cigoli Giovanna Cigoli
◎简  介

  墨索里尼期间的意大利,一个四岁男孩目击了人生的各种悲剧:母亲不安于室,父亲身杀,家庭破裂。本片的戏剧性激烈,跟《风烛泪》对晚年惨景的描写有殊途同归之妙,把童真的扑灭刻画得淋漓尽致,是德西卡这位新现实主义大师又一部动人之作。                                    
                                影片注视着一个四岁的小孩皮里科在母亲尼娜为了情人罗贝特分开丈夫安德烈以后堕入忧心当中的故事。皮里科先是被送到阿姨家,再到祖母何处。当他抱病时母亲尼娜赶返来,在情人罗贝特还是要对峙见她的情况下,立誓要与他一刀两断。家庭情况逐步好转,直到百口人前往意大利里维埃拉胜地度假时,工作才出现变故
  1. Video
  2. ID                                       : 1
  3. Format                                   : AVC
  4. Format/Info                              : Advanced Video Codec
  5. Format profile                           : [email protected]
  6. Format settings                          : CABAC / 5 Ref Frames
  7. Format settings, CABAC                   : Yes
  8. Format settings, Reference frames        : 5 frames
  9. Codec ID                                 : V_MPEG4/ISO/AVC
  10. Duration                                 : 1 h 24 min
  11. Bit rate                                 : 5 460 kb/s
  12. Width                                    : 1 440 pixels
  13. Height                                   : 1 080 pixels
  14. Display aspect ratio                     : 4:3
  15. Frame rate mode                          : Constant
  16. Frame rate                               : 23.976 (24000/1001/189150) FPS
  17. Color space                              : YUV
  18. Chroma subsampling                       : 4:2:0
  19. Bit depth                                : 8 bits
  20. Scan type                                : Progressive
  21. Bits/(Pixel*Frame)                       : 0.146
  22. Stream size                              : 3.23 GiB (98%)
  23. Writing library                          : x264 core 157 r10 d4099dd
  24. Encoding settings                        : cabac=1 / ref=5 / deblock=1:0:0 / analyse=0x3:0x113 / me=hex / subme=8 / psy=1 / psy_rd=1.00:0.00 / mixed_ref=1 / me_range=16 / chroma_me=1 / trellis=2 / 8x8dct=1 / cqm=0 / deadzone=21,11 / fast_pskip=1 / chroma_qp_offset=-2 / threads=34 / lookahead_threads=5 / sliced_threads=0 / nr=0 / decimate=1 / interlaced=0 / bluray_compat=0 / stitchable=1 / constrained_intra=0 / bframes=3 / b_pyramid=2 / b_adapt=2 / b_bias=0 / direct=3 / weightb=1 / open_gop=0 / weightp=2 / keyint=infinite / keyint_min=23 / scenecut=40 / intra_refresh=0 / rc_lookahead=50 / rc=crf / mbtree=1 / crf=20.0 / qcomp=0.60 / qpmin=5 / qpmax=69 / qpstep=4 / vbv_maxrate=5500 / vbv_bufsize=15000 / crf_max=0.0 / nal_hrd=none / filler=0 / ip_ratio=1.40 / aq=1:1.00
  25. Default                                  : Yes
  26. Forced                                   : No
  27. Color range                              : Limited
  28. Color primaries                          : BT.709
  29. Transfer characteristics                 : BT.709
  30. Matrix coefficients                      : BT.709
  31. Audio
  32. ID                                       : 2
  33. Format                                   : AAC LC
  34. Format/Info                              : Advanced Audio Codec Low Complexity
  35. Codec ID                                 : A_AAC-2
  36. Duration                                 : 1 h 24 min
  37. Bit rate                                 : 137 kb/s
  38. Channel(s)                               : 2 channels
  39. Channel layout                           : L R
  40. Sampling rate                            : 48.0 kHz
  41. Frame rate                               : 46.875 FPS (1024 SPF)
  42. Compression mode                         : Lossy
  43. Stream size                              : 83.0 MiB (2%)
  44. Language                                 : Italian
  45. Default                                  : Yes
  46. Forced                                   : No
复制代码







                                       
                                       

                                       
                                       
                                       




回复

使用道具 举报

懒得打字嘛,点击右侧快捷回复 【右侧内容,后台自定义】
您需要登录后才可以回帖 登录 | 立即加入

本版积分规则

Archiver|小黑屋| 蓝光电影网 |网站地图

Copyright © 2021 Comsenz Inc. Powered by 蓝光电影网

蓝光电影网

本站内容由用户自主分享和转载自互联网,转载目的在于传递更多信息,并不代表本网赞同其观点和对其真实性负责。

如有侵权、违反国家法律政策行为,请联系我们,我们会第一时间及时清除和处理!

举报反馈邮箱:[email protected]

快速回复 返回顶部 返回列表