找回密码

蓝光电影网

查看: 60|回复: 0

[剧情] 志明与春娇[国语音轨/中英字幕].Love.In.A.Puff.2010.1080p.BluRay.DTS-HD.MA.7.1.x265-10bit-BATHD 8.30GB

[复制链接]
蓝光币
8
发表于 2022-7-29 01:41:15 | 显示全部楼层 |阅读模式


◎标  题 志明与春娇
◎译  名 谈恋爱 / Love in a Puff
◎片  名 志明與春嬌
◎年  代 2010
◎产  地 中国香港
◎类  别 剧情 / 笑剧 / 恋爱
◎语  言 粤语
◎上映日期 2010-06-18(中国大陆) / 2010-03-25(中国香港)
◎IMDb评分 7.2/10 (2494人评价)
◎IMDb链接 https://www.imdb.com/title/tt1602479/
◎豆瓣评分 7.9/10 (455562人评价)
◎豆瓣链接 https://movie.douban.com/subject/4305436/
◎片  长 104分钟(香港)
◎导  演 彭浩翔 Ho-Cheung Pang
◎编  剧 麦曦茵 Heiward Mak
       彭浩翔 Ho-Cheung Pang
◎演  员 杨千嬅 Miriam Yeung
       余文乐 Shawn Yue
       黄德斌 Tak-bun Wong
       陈逸宁 Yat Ning Chan
       谷祖琳 Jolane Koo
       司徒慧焯 Roy Szeto
       谷德昭 Vincent Kok
       张达明 Tat-Ming Cheung
       方皓玟 Charmaine Fong
       林兆霞 June Lam
       关逸基 Clifton Kwan
       林耀声 Yiu-Sing Lam
       缪非临 Fei-Lam Miu
       辛格·哈提汗·比托 Singh Hartihan Bitto
       陆诗韵 Sharon Luk
       徐天助 Tien You Chui
       邹凯光 Matt Chow
       王宗尧 Gregory Wong
       朱慧敏 Queenie Chu
       刘伟恒 Wai-Hang Lau
       筱靖 Manecy Chen
       骆应钧 Ying Kwan Lok
       黄颖君 Burmie Wong
◎标  签 香港 / 恋爱 / 文艺 / 都会 / 黑色诙谐 / 笑剧 / 生活 / 2010
◎简  介
    一纸戒烟令让狭窄的后巷成为新型交际地区,无数抽数的男男女女不能不躲进那边吸烟。不管身居何位,所为何事,在那边他们都只是一个烟民,大师所做的不过是一路吞云吐雾、一路科插讥笑。来自广告公司的志明(余文乐 饰)和在化装品专柜工作的春娇(杨千嬅 饰)在那边了解,志明的不幸遭受以及为春娇点烟的行为让春娇对这个斯文的汉子略生好感。在接下来的几个日昼夜夜,两人不时的传送短信和相约街角吸烟。豪情经过拇指传送,恋爱在烟雾当中滋生,终极一条暗昧的短信致使春娇和男友家豪(黄德斌 饰)分手。就当春娇预备满身心投入与志明的爱情时,志明的态度却变得含糊不清。烟雾继续在街角后巷缭绕,但却不能弥合二人之间出现的隔膜。陪伴着增加烟草税的决意颁布,广大烟民们起头搜寻和囤积卷烟。在寻烟进程中,志明和春娇在他们第一次碰见的便当商铺重逢,这晚,两人相约一路去找烟……                                                                      本片在五个星期15个拍摄日便完成拍摄,拍摄时候相当短。由于粗口写实镜头偏激,《志明和春娇》在香港上映时被定为三级片。
  1. ##### MediaInfo ######
  2. General
  3. Unique ID                                : 291749441540615382498138214995446394260 (0xDB7CE608D2C1F86269B793DD947EED94)
  4. Complete name                            : Love.In.A.Puff.2010.1080p.BluRay.DTS-HD.MA.7.1.x265-10bit-BATHD.mkv
  5. Format                                   : Matroska
  6. Format version                           : Version 4
  7. File size                                : 8.29 GiB
  8. Duration                                 : 1 h 42 min
  9. Overall bit rate mode                    : Variable
  10. Overall bit rate                         : 11.6 Mb/s
  11. Movie name                               : Love in a puff - Blu-ray?
  12. Encoded date                             : UTC 2022-07-25 15:55:38
  13. Writing application                      : mkvmerge v69.0.0 ('Day And Age') 64-bit
  14. Writing library                          : libebml v1.4.2 + libmatroska v1.6.4
  15. Cover                                    : Yes
  16. Attachments                              : cover.jpg
  17. Video
  18. ID                                       : 1
  19. Format                                   : HEVC
  20. Format/Info                              : High Efficiency Video Coding
  21. Format profile                           : Main [email protected]@High
  22. Codec ID                                 : V_MPEGH/ISO/HEVC
  23. Duration                                 : 1 h 42 min
  24. Bit rate                                 : 7 356 kb/s
  25. Width                                    : 1 920 pixels
  26. Height                                   : 816 pixels
  27. Display aspect ratio                     : 2.35:1
  28. Frame rate mode                          : Constant
  29. Frame rate                               : 24.000 FPS
  30. Color space                              : YUV
  31. Chroma subsampling                       : 4:2:0
  32. Bit depth                                : 10 bits
  33. Bits/(Pixel*Frame)                       : 0.196
  34. Stream size                              : 5.28 GiB (64%)
  35. Writing library                          : x265 - H.265/HEVC codec
  36. Default                                  : Yes
  37. Forced                                   : No
  38. Audio #1
  39. ID                                       : 2
  40. ID in the original source medium         : 4352 (0x1100)
  41. Format                                   : DTS XLL
  42. Format/Info                              : Digital Theater Systems
  43. Commercial name                          : DTS-HD Master Audio
  44. Codec ID                                 : A_DTS
  45. Duration                                 : 1 h 42 min
  46. Bit rate mode                            : Variable
  47. Bit rate                                 : 2 672 kb/s
  48. Channel(s)                               : 8 channels
  49. Channel layout                           : C L R LFE Lb Rb Lss Rss
  50. Sampling rate                            : 48.0 kHz
  51. Frame rate                               : 93.750 FPS (512 SPF)
  52. Bit depth                                : 16 bits
  53. Compression mode                         : Lossless
  54. Stream size                              : 1.92 GiB (23%)
  55. Language                                 : Chinese
  56. Default                                  : Yes
  57. Forced                                   : No
  58. Original source medium                   : Blu-ray
  59. Audio #2
  60. ID                                       : 3
  61. ID in the original source medium         : 4353 (0x1101)
  62. Format                                   : AC-3
  63. Format/Info                              : Audio Coding 3
  64. Commercial name                          : Dolby Digital
  65. Codec ID                                 : A_AC3
  66. Duration                                 : 1 h 42 min
  67. Bit rate mode                            : Constant
  68. Bit rate                                 : 640 kb/s
  69. Channel(s)                               : 6 channels
  70. Channel layout                           : L R C LFE Ls Rs
  71. Sampling rate                            : 48.0 kHz
  72. Frame rate                               : 31.250 FPS (1536 SPF)
  73. Compression mode                         : Lossy
  74. Stream size                              : 471 MiB (6%)
  75. Language                                 : Chinese
  76. Service kind                             : Complete Main
  77. Default                                  : Yes
  78. Forced                                   : No
  79. Original source medium                   : Blu-ray
  80. Audio #3
  81. ID                                       : 4
  82. ID in the original source medium         : 4354 (0x1102)
  83. Format                                   : AC-3
  84. Format/Info                              : Audio Coding 3
  85. Commercial name                          : Dolby Digital
  86. Codec ID                                 : A_AC3
  87. Duration                                 : 1 h 42 min
  88. Bit rate mode                            : Constant
  89. Bit rate                                 : 640 kb/s
  90. Channel(s)                               : 6 channels
  91. Channel layout                           : L R C LFE Ls Rs
  92. Sampling rate                            : 48.0 kHz
  93. Frame rate                               : 31.250 FPS (1536 SPF)
  94. Compression mode                         : Lossy
  95. Stream size                              : 471 MiB (6%)
  96. Language                                 : Chinese
  97. Service kind                             : Complete Main
  98. Default                                  : Yes
  99. Forced                                   : No
  100. Original source medium                   : Blu-ray
  101. Audio #4
  102. ID                                       : 5
  103. ID in the original source medium         : 4355 (0x1103)
  104. Format                                   : AC-3
  105. Format/Info                              : Audio Coding 3
  106. Commercial name                          : Dolby Digital
  107. Codec ID                                 : A_AC3
  108. Duration                                 : 1 h 42 min
  109. Bit rate mode                            : Constant
  110. Bit rate                                 : 192 kb/s
  111. Channel(s)                               : 2 channels
  112. Channel layout                           : L R
  113. Sampling rate                            : 48.0 kHz
  114. Frame rate                               : 31.250 FPS (1536 SPF)
  115. Compression mode                         : Lossy
  116. Stream size                              : 141 MiB (2%)
  117. Language                                 : Chinese
  118. Service kind                             : Complete Main
  119. Default                                  : Yes
  120. Forced                                   : No
  121. Original source medium                   : Blu-ray
  122. Text #1
  123. ID                                       : 6
  124. ID in the original source medium         : 4608 (0x1200)
  125. Format                                   : PGS
  126. Muxing mode                              : zlib
  127. Codec ID                                 : S_HDMV/PGS
  128. Codec ID/Info                            : Picture based subtitle format used on BDs/HD-DVDs
  129. Duration                                 : 1 h 41 min
  130. Bit rate                                 : 45.9 kb/s
  131. Count of elements                        : 3122
  132. Stream size                              : 33.5 MiB (0%)
  133. Language                                 : Chinese
  134. Default                                  : Yes
  135. Forced                                   : No
  136. Original source medium                   : Blu-ray
  137. Text #2
  138. ID                                       : 7
  139. ID in the original source medium         : 4609 (0x1201)
  140. Format                                   : PGS
  141. Muxing mode                              : zlib
  142. Codec ID                                 : S_HDMV/PGS
  143. Codec ID/Info                            : Picture based subtitle format used on BDs/HD-DVDs
  144. Duration                                 : 1 h 41 min
  145. Bit rate                                 : 41.6 kb/s
  146. Count of elements                        : 3122
  147. Stream size                              : 30.3 MiB (0%)
  148. Language                                 : Chinese
  149. Default                                  : Yes
  150. Forced                                   : No
  151. Original source medium                   : Blu-ray
  152. Text #3
  153. ID                                       : 8
  154. ID in the original source medium         : 4610 (0x1202)
  155. Format                                   : PGS
  156. Muxing mode                              : zlib
  157. Codec ID                                 : S_HDMV/PGS
  158. Codec ID/Info                            : Picture based subtitle format used on BDs/HD-DVDs
  159. Duration                                 : 1 h 41 min
  160. Bit rate                                 : 38.5 kb/s
  161. Count of elements                        : 3122
  162. Stream size                              : 28.1 MiB (0%)
  163. Language                                 : English
  164. Default                                  : Yes
  165. Forced                                   : No
  166. Original source medium                   : Blu-ray
  167. Menu
  168. 00:00:00.000                             : en:Chapter 01
  169. 00:05:35.041                             : en:Chapter 02
  170. 00:15:02.791                             : en:Chapter 03
  171. 00:17:28.333                             : en:Chapter 04
  172. 00:22:52.458                             : en:Chapter 05
  173. 00:25:31.583                             : en:Chapter 06
  174. 00:32:12.375                             : en:Chapter 07
  175. 00:38:37.250                             : en:Chapter 08
  176. 00:42:23.625                             : en:Chapter 09
  177. 00:48:35.208                             : en:Chapter 10
  178. 00:53:49.208                             : en:Chapter 11
  179. 01:01:51.458                             : en:Chapter 12
  180. 01:04:43.666                             : en:Chapter 13
  181. 01:08:35.833                             : en:Chapter 14
  182. 01:12:55.250                             : en:Chapter 15
  183. 01:19:31.208                             : en:Chapter 16
  184. 01:25:22.958                             : en:Chapter 17
  185. 01:29:37.041                             : en:Chapter 18
  186. 01:34:32.291                             : en:Chapter 19
  187. 01:38:22.958                             : en:Chapter 20
复制代码



保举请利用qBittorrent,utorrent,transmission等标准BT软件下载!以获得最快速度。奉求保种!





回复

使用道具 举报

懒得打字嘛,点击右侧快捷回复 【右侧内容,后台自定义】
您需要登录后才可以回帖 登录 | 立即加入

本版积分规则

Archiver|小黑屋| 蓝光电影网 |网站地图

Copyright © 2021 Comsenz Inc. Powered by 蓝光电影网

蓝光电影网

本站内容由用户自主分享和转载自互联网,转载目的在于传递更多信息,并不代表本网赞同其观点和对其真实性负责。

如有侵权、违反国家法律政策行为,请联系我们,我们会第一时间及时清除和处理!

举报反馈邮箱:[email protected]

快速回复 返回顶部 返回列表