找回密码

蓝光电影网

查看: 74|回复: 0

[剧情] 光荣何价[简繁英字幕].Bound.for.Glory.1976.BluRay.1080p.DTS-HD.MA1.0.x265.10bit-ALT 14.88GB

[复制链接]
蓝光币
8
发表于 2022-7-29 01:41:22 | 显示全部楼层 |阅读模式


◎标  题 名誉何价
◎译  名 奔向名誉 / 迈向名誉
◎片  名 Bound for Glory
◎年  代 1976
◎产  地 美国
◎类  别 剧情 / 音乐 / 列传
◎语  言 英语
◎上映日期 1976-12-05
◎IMDb评分 7.2/10 (5116人评价)
◎IMDb链接 https://www.imdb.com/title/tt0074235/
◎豆瓣评分 8.2/10 (645人评价)
◎豆瓣链接 https://movie.douban.com/subject/1293194/
◎片  长 147 分钟
◎导  演 哈尔·阿什贝 Hal Ashby
◎编  剧 伍迪·格思里 Woody Guthrie
       罗伯特·格彻尔 Robert Getchell
◎演  员 大卫·卡拉丁 David Carradine
       兰迪·奎德 Randy Quaid
       梅林达·狄龙 Melinda Dillon
       James O'Connell James O'Connell
       R.A. 郎德尔 R.A. Rondell
       罗伯特·C·琼斯 Robert C. Jones
       佩姆布罗克·J·赫林 Pembroke J. Herring
       林恩·斯塔马斯特 Lynn Stalmaster
       詹姆斯·H·斯宾塞 James H. Spencer
◎简  介
  这部电影是伍迪·格斯的优异列传,他是美国最巨大的民谣歌手之一。他在上世纪30年月分开了自己位于得克萨斯州的家,去找工作,发现了美国工人阶级的磨难和蔼力。
  1. ##### MediaInfo ######
  2. General
  3. Unique ID                                : 52762661851467435839964139331556056916 (0x27B1B8130A51195031B4166F30FD9F54)
  4. Complete name                            : Bound.for.Glory.1976.BluRay.1080p.DTS-HD.MA1.0.x265.10bit-ALT.mkv
  5. Format                                   : Matroska
  6. Format version                           : Version 4
  7. File size                                : 14.9 GiB
  8. Duration                                 : 2 h 28 min
  9. Overall bit rate mode                    : Variable
  10. Overall bit rate                         : 14.4 Mb/s
  11. Encoded date                             : UTC 2022-07-26 10:30:43
  12. Writing application                      : mkvmerge v49.0.0 ('Sick Of Losing Soulmates') 64-bit
  13. Writing library                          : libebml v1.4.0 + libmatroska v1.6.1
  14. Video
  15. ID                                       : 1
  16. Format                                   : HEVC
  17. Format/Info                              : High Efficiency Video Coding
  18. Format profile                           : Main [email protected]@High
  19. Codec ID                                 : V_MPEGH/ISO/HEVC
  20. Duration                                 : 2 h 28 min
  21. Bit rate                                 : 12.2 Mb/s
  22. Width                                    : 1 920 pixels
  23. Height                                   : 1 040 pixels
  24. Display aspect ratio                     : 1.85:1
  25. Frame rate mode                          : Constant
  26. Frame rate                               : 23.976 (24000/1001/53875) FPS
  27. Color space                              : YUV
  28. Chroma subsampling                       : 4:2:0
  29. Bit depth                                : 10 bits
  30. Bits/(Pixel*Frame)                       : 0.255
  31. Stream size                              : 12.6 GiB (85%)
  32. Title                                    : HEVC, [email protected]@High, 24/1.001 fps @ 11882 kbps
  33. Writing library                          : x265 3.5+36-1f2c8da77:[Windows][GCC 11.2.0][64 bit] 10bit
  34. Encoding settings                        : cpuid=538751049071 / frame-threads=3 / numa-pools=8 / wpp / no-pmode / no-pme / no-psnr / no-ssim / log-level=2 / input-csp=1 / input-res=1920x1040 / interlace=0 / total-frames=213276 / level-idc=51 / high-tier=1 / uhd-bd=0 / ref=5 / no-allow-non-conformance / no-repeat-headers / annexb / no-aud / no-eob / no-eos / no-hrd / info / hash=0 / no-temporal-layers / open-gop / min-keyint=24 / keyint=240 / gop-lookahead=0 / bframes=6 / b-adapt=2 / b-pyramid / bframe-bias=0 / rc-lookahead=40 / lookahead-slices=0 / NTM4NzU=uuDQuD2mJt9fsCf / scenecut=40 / no-hist-scenecut / radl=0 / no-splice / no-intra-refresh / ctu=32 / min-cu-size=8 / no-rect / no-amp / max-tu-size=32 / tu-inter-depth=3 / tu-intra-depth=3 / limit-tu=4 / rdoq-level=2 / dynamic-rd=0.00 / no-ssim-rd / signhide / no-tskip / nr-intra=0 / nr-inter=0 / no-constrained-intra / no-strong-intra-smoothing / max-merge=4 / limit-refs=1 / limit-modes / me=3 / subme=4 / merange=25 / temporal-mvp / no-frame-dup / no-hme / weightp / weightb / no-analyze-src-pics / deblock=-3:-3 / no-sao / no-sao-non-deblock / rd=6 / selective-sao=0 / no-early-skip / rskip / no-fast-intra / no-tskip-fast / no-cu-lossless / b-intra / no-splitrd-skip / rdpenalty=0 / psy-rd=2.00 / psy-rdoq=1.00 / no-rd-refine / no-lossless / cbqpoffs=-2 / crqpoffs=-2 / rc=crf / crf=18.5 / qcomp=0.65 / qpstep=4 / stats-write=0 / stats-read=0 / vbv-maxrate=80000 / vbv-bufsize=80000 / vbv-init=0.9 / min-vbv-fullness=50.0 / max-vbv-fullness=80.0 / crf-max=0.0 / crf-min=0.0 / ipratio=1.40 / pbratio=1.30 / aq-mode=2 / aq-strength=0.85 / cutree / zone-count=0 / no-strict-cbr / qg-size=32 / no-rc-grain / qpmax=69 / qpmin=0 / no-const-vbv / sar=1 / overscan=0 / videoformat=5 / range=0 / colorprim=1 / transfer=1 / colormatrix=1 / chromaloc=0 / display-window=0 / cll=0,0 / min-luma=0 / max-luma=1023 / log2-max-poc-lsb=8 / vui-timing-info / vui-hrd-info / slices=1 / no-opt-qp-pps / no-opt-ref-list-length-pps / no-multi-pass-opt-rps / scenecut-bias=0.05 / hist-threshold=0.03 / no-opt-cu-delta-qp / no-aq-motion / no-hdr10 / no-hdr10-opt / no-dhdr10-opt / no-idr-recovery-sei / analysis-reuse-level=0 / analysis-save-reuse-level=0 / analysis-load-reuse-level=0 / scale-factor=0 / refine-intra=0 / refine-inter=0 / refine-mv=1 / refine-ctu-distortion=0 / no-limit-sao / ctu-info=0 / no-lowpass-dct / refine-analysis-type=0 / copy-pic=1 / max-ausize-factor=1.0 / no-dynamic-refine / no-single-sei / no-hevc-aq / no-svt / no-field / qp-adaptation-range=1.00 / scenecut-aware-qp=0conformance-window-offsets / right=0 / bottom=0 / NTM4NzU= / decoder-max-rate=0 / no-vbv-live-multi-pass
  35. Language                                 : English
  36. Default                                  : Yes
  37. Forced                                   : No
  38. Color range                              : Limited
  39. Color primaries                          : BT.709
  40. Transfer characteristics                 : BT.709
  41. Matrix coefficients                      : BT.709
  42. Audio #1
  43. ID                                       : 2
  44. Format                                   : DTS XLL
  45. Format/Info                              : Digital Theater Systems
  46. Commercial name                          : DTS-HD Master Audio
  47. Codec ID                                 : A_DTS
  48. Duration                                 : 2 h 28 min
  49. Bit rate mode                            : Variable
  50. Bit rate                                 : 1 077 kb/s
  51. Channel(s)                               : 1 channel
  52. Channel layout                           : C
  53. Sampling rate                            : 48.0 kHz
  54. Frame rate                               : 93.750 FPS (512 SPF)
  55. Bit depth                                : 24 bits
  56. Compression mode                         : Lossless
  57. Stream size                              : 1.11 GiB (7%)
  58. Title                                    : English DTS-HD Master Audio 1.0 @ 1077 kbps
  59. Language                                 : English
  60. Default                                  : Yes
  61. Forced                                   : No
  62. Audio #2
  63. ID                                       : 3
  64. Format                                   : DTS XLL
  65. Format/Info                              : Digital Theater Systems
  66. Commercial name                          : DTS-HD Master Audio
  67. Codec ID                                 : A_DTS
  68. Duration                                 : 2 h 28 min
  69. Bit rate mode                            : Variable
  70. Bit rate                                 : 993 kb/s
  71. Channel(s)                               : 2 channels
  72. Channel layout                           : L R
  73. Sampling rate                            : 48.0 kHz
  74. Frame rate                               : 93.750 FPS (512 SPF)
  75. Bit depth                                : 24 bits
  76. Compression mode                         : Lossless
  77. Stream size                              : 1.03 GiB (7%)
  78. Title                                    : Pure music DTS-HD Master Audio 2.0 @ 993 kbps
  79. Language                                 : English
  80. Default                                  : No
  81. Forced                                   : No
  82. Text #1
  83. ID                                       : 4
  84. Format                                   : PGS
  85. Codec ID                                 : S_HDMV/PGS
  86. Codec ID/Info                            : Picture based subtitle format used on BDs/HD-DVDs
  87. Duration                                 : 2 h 27 min
  88. Bit rate                                 : 36.1 kb/s
  89. Count of elements                        : 3758
  90. Stream size                              : 38.1 MiB (0%)
  91. Title                                    : Eng/SUP
  92. Language                                 : English
  93. Default                                  : No
  94. Forced                                   : No
  95. Text #2
  96. ID                                       : 5
  97. Format                                   : PGS
  98. Codec ID                                 : S_HDMV/PGS
  99. Codec ID/Info                            : Picture based subtitle format used on BDs/HD-DVDs
  100. Duration                                 : 2 h 27 min
  101. Bit rate                                 : 35.2 kb/s
  102. Count of elements                        : 3549
  103. Stream size                              : 37.1 MiB (0%)
  104. Title                                    : Chs/SUP  简体
  105. Language                                 : Chinese
  106. Default                                  : Yes
  107. Forced                                   : No
  108. Text #3
  109. ID                                       : 6
  110. Format                                   : PGS
  111. Codec ID                                 : S_HDMV/PGS
  112. Codec ID/Info                            : Picture based subtitle format used on BDs/HD-DVDs
  113. Duration                                 : 2 h 27 min
  114. Bit rate                                 : 36.4 kb/s
  115. Count of elements                        : 3549
  116. Stream size                              : 38.5 MiB (0%)
  117. Title                                    : Cht/SUP  繁体
  118. Language                                 : Chinese
  119. Default                                  : No
  120. Forced                                   : No
  121. Menu
  122. 00:00:00.000                             : en:第 01 章
  123. 00:05:21.947                             : en:第 02 章
  124. 00:12:44.764                             : en:第 03 章
  125. 00:17:01.020                             : en:第 04 章
  126. 00:25:17.933                             : en:第 05 章
  127. 00:31:35.602                             : en:第 06 章
  128. 00:37:37.589                             : en:第 07 章
  129. 00:43:45.248                             : en:第 08 章
  130. 00:49:49.111                             : en:第 09 章
  131. 00:56:30.387                             : en:第 10 章
  132. 01:02:40.256                             : en:第 11 章
  133. 01:08:31.107                             : en:第 12 章
  134. 01:14:44.397                             : en:第 13 章
  135. 01:19:05.741                             : en:第 14 章
  136. 01:25:57.569                             : en:第 15 章
  137. 01:32:57.989                             : en:第 16 章
  138. 01:41:16.070                             : en:第 17 章
  139. 01:46:38.309                             : en:第 18 章
  140. 01:53:49.364                             : en:第 19 章
  141. 01:59:27.786                             : en:第 20 章
  142. 02:03:48.838                             : en:第 21 章
  143. 02:11:32.051                             : en:第 22 章
  144. 02:17:32.244                             : en:第 23 章
  145. 02:24:01.883                             : en:第 24 章
复制代码

















保举请利用qBittorrent,utorrent,transmission等标准BT软件下载!以获得最快速度。奉求保种!





回复

使用道具 举报

懒得打字嘛,点击右侧快捷回复 【右侧内容,后台自定义】
您需要登录后才可以回帖 登录 | 立即加入

本版积分规则

Archiver|小黑屋| 蓝光电影网 |网站地图

Copyright © 2021 Comsenz Inc. Powered by 蓝光电影网

蓝光电影网

本站内容由用户自主分享和转载自互联网,转载目的在于传递更多信息,并不代表本网赞同其观点和对其真实性负责。

如有侵权、违反国家法律政策行为,请联系我们,我们会第一时间及时清除和处理!

举报反馈邮箱:[email protected]

快速回复 返回顶部 返回列表