找回密码

蓝光电影网

查看: 181|回复: 1

[2160p-WEB] 大块头有大智慧[中文字幕/国粤语音轨].Running.on.Karma.2003.2160p.WEB-DL.H265.DDP5.1-TAGWEB 11.36GB

[复制链接]
蓝光币
8
发表于 2022-7-29 01:43:06 | 显示全部楼层 |阅读模式


◎标  题 大块头有大聪明
◎译  名 大只佬 / Running on Karma
◎片  名 大隻佬
◎年  代 2003
◎产  地 中国香港 / 中国大陆
◎类  别 剧情 / 行动 / 惊悚
◎语  言 粤语 / 英语 / 印地语
◎上映日期 2003-09-27
◎IMDb评分 6.6/10 (2985人评价)
◎IMDb链接 https://www.imdb.com/title/tt0374184/
◎豆瓣评分 6.7/10 (73001人评价)
◎豆瓣链接 https://movie.douban.com/subject/1300359/
◎片  长 92分钟
◎导  演 杜琪峰 Johnnie To
       韦家辉 Ka-Fai Wai
◎编  剧 韦家辉 Ka-Fai Wai
       游乃海 Nai-Hoi Yau
       欧健儿 Kin-Yee Au
       叶天成 Tin-Shing Yip
◎演  员 刘德华 Andy Lau
       张柏芝 Cecilia Cheung
       张兆辉 Siu-Fai Cheung
       汤宝如 Karen Tong
       秦煌 Wong Chun
       黄华和 Wah Wo Wong
       元彬 Bun Yuen
       王文駿 Man-Chun Wong
       韩国材 Kwok Choi Hon
       黄志伟 Chi Wai Wong
       于文仲 Wenzhong Yu
       张珊萌 Shanmeng Zhang
       杜琪峰 Johnnie To
       侯克明 Keming Hou
       黄嘉倩 Cacine Wong
       郑兆强 Siu-keung Cheng
       罗永昌 Wing-cheong Law
       余家安 Bruce Yu
       余家安 Bruce Yu
       马克.加巴里诺 Mark Garbarino
       罗永昌 Wing-cheong Law
       麦启光 Albert Kai-kwong Mak
       莫美华 May Mok
       罗柏禹 Charlie Lo
       马文现 Stephen Ma
       林峰 Feng Lin
       邝庭晃 Ting Fong Kwong
       黄华和 Wah Wo Wong
◎标  签 杜琪峰 / 香港 / 刘德华 / 香港电影 / 张柏芝 / 行动 / 银河映像 / 2003
◎简  介
  大隻佬(刘德华 饰)在跳艳舞时与前来扫黄的警花李凤仪(张柏芝 饰)相遇,同时,重案组亦在四周观察一路印度人杀人案。大隻佬逃窜时与逃走的印度逃犯萍水重逢,最初逃犯逃走了,大隻佬被当做了嫌犯抓回了警局。实在大隻佬之前是大陆一位武僧,因好友小翠惨死,哀痛过度在树下失慎打死小鸟,对着小鸟坐禅7天7夜因此获得能看到因果的才能——看到成果时,便能看到起因。他看到了小翠的死是因果,他打死小鸟是因果,因没法安静接管这一切,他出家了。                                    
                                此次,他看到了李凤仪,看到了日军在杀人,便知她罪业太重,会遭受横祸。为了帮助这位心地善良的警花,他起头黑暗帮助她,帮她屡破奇案,救她于危难,希望能帮她洗刷罪业……
  1. ##### MediaInfo ######
  2. General
  3. Unique ID                                : 87369365608183477368476202876074637657 (0x41BABA4D79E2A35CD48EC94AEC52B959)
  4. Complete name                            : Running.on.Karma.2003.2160p.WEB-DL.H265.DDP5.1-TAGWEB.mkv
  5. Format                                   : Matroska
  6. Format version                           : Version 4
  7. File size                                : 11.4 GiB
  8. Duration                                 : 1 h 32 min
  9. Overall bit rate                         : 17.6 Mb/s
  10. Encoded date                             : UTC 2022-07-27 02:47:40
  11. Writing application                      : mkvmerge v68.0.0 ('The Curtain') 64-bit
  12. Writing library                          : libebml v1.4.2 + libmatroska v1.6.4
  13. Video
  14. ID                                       : 1
  15. Format                                   : HEVC
  16. Format/Info                              : High Efficiency Video Coding
  17. Format profile                           : [email protected]@High
  18. Codec ID                                 : V_MPEGH/ISO/HEVC
  19. Duration                                 : 1 h 32 min
  20. Bit rate                                 : 16.9 Mb/s
  21. Width                                    : 3 840 pixels
  22. Height                                   : 2 160 pixels
  23. Display aspect ratio                     : 16:9
  24. Frame rate mode                          : Constant
  25. Frame rate                               : 25.000 FPS
  26. Color space                              : YUV
  27. Chroma subsampling                       : 4:2:0
  28. Bit depth                                : 8 bits
  29. Bits/(Pixel*Frame)                       : 0.082
  30. Stream size                              : 10.9 GiB (96%)
  31. Language                                 : Chinese
  32. Default                                  : Yes
  33. Forced                                   : No
  34. Audio #1
  35. ID                                       : 2
  36. Format                                   : E-AC-3
  37. Format/Info                              : Enhanced AC-3
  38. Commercial name                          : Dolby Digital Plus
  39. Codec ID                                 : A_EAC3
  40. Duration                                 : 1 h 32 min
  41. Bit rate mode                            : Constant
  42. Bit rate                                 : 256 kb/s
  43. Channel(s)                               : 2 channels
  44. Channel layout                           : L R
  45. Sampling rate                            : 48.0 kHz
  46. Frame rate                               : 31.250 FPS (1536 SPF)
  47. Compression mode                         : Lossy
  48. Stream size                              : 169 MiB (1%)
  49. Title                                    : Mandarin
  50. Language                                 : Chinese
  51. Service kind                             : Complete Main
  52. Default                                  : Yes
  53. Forced                                   : No
  54. Audio #2
  55. ID                                       : 3
  56. Format                                   : AAC LC
  57. Format/Info                              : Advanced Audio Codec Low Complexity
  58. Codec ID                                 : A_AAC-2
  59. Duration                                 : 1 h 32 min
  60. Bit rate                                 : 192 kb/s
  61. Channel(s)                               : 2 channels
  62. Channel layout                           : L R
  63. Sampling rate                            : 48.0 kHz
  64. Frame rate                               : 46.875 FPS (1024 SPF)
  65. Compression mode                         : Lossy
  66. Stream size                              : 127 MiB (1%)
  67. Title                                    : Mandarin
  68. Language                                 : Chinese
  69. Default                                  : No
  70. Forced                                   : No
  71. Audio #3
  72. ID                                       : 4
  73. Format                                   : AAC LC
  74. Format/Info                              : Advanced Audio Codec Low Complexity
  75. Codec ID                                 : A_AAC-2
  76. Duration                                 : 1 h 32 min
  77. Bit rate                                 : 192 kb/s
  78. Channel(s)                               : 2 channels
  79. Channel layout                           : L R
  80. Sampling rate                            : 48.0 kHz
  81. Frame rate                               : 46.875 FPS (1024 SPF)
  82. Compression mode                         : Lossy
  83. Stream size                              : 125 MiB (1%)
  84. Title                                    : Cantonese
  85. Language                                 : Chinese
  86. Default                                  : No
  87. Forced                                   : No
复制代码

















保举请利用qBittorrent,utorrent,transmission等标准BT软件下载!以获得最快速度。奉求保种!





回复

使用道具 举报

蓝光币
20
发表于 2022-11-7 02:13:14 | 显示全部楼层
是无删减版吗
回复 支持 反对

使用道具 举报

懒得打字嘛,点击右侧快捷回复 【右侧内容,后台自定义】
您需要登录后才可以回帖 登录 | 立即加入

本版积分规则

Archiver|小黑屋| 蓝光电影网 |网站地图

Copyright © 2021 Comsenz Inc. Powered by 蓝光电影网

蓝光电影网

本站内容由用户自主分享和转载自互联网,转载目的在于传递更多信息,并不代表本网赞同其观点和对其真实性负责。

如有侵权、违反国家法律政策行为,请联系我们,我们会第一时间及时清除和处理!

举报反馈邮箱:[email protected]

快速回复 返回顶部 返回列表