找回密码

蓝光电影网

查看: 207|回复: 0

[2160p-WEB] 蓬莱龙棺之徐福宝藏[国语配音/中文字幕].Peng.Lai.Long.Guan.Zhi.Xu.Fu.Bao.Cang.2022.2160p.WEB-DL.H265.AAC-MOMOWEB 1.40GB

[复制链接]
蓝光币
8
发表于 2022-7-29 01:43:09 | 显示全部楼层 |阅读模式


◎标  题 蓬莱龙棺之徐福宝藏
◎年  代 2022
◎产  地 中国大陆
◎上映日期 2022-07-28(中国大陆)
◎IMDb链接 https://www.imdb.com/title//
◎豆瓣链接 https://movie.douban.com/subject/36024624/
◎简  介
  本片按照历史记录及官方传闻的徐福东渡的故事为动身点,讲诉了民国期间的探险家寻觅传闻中蓬莱岛上的徐福宝藏,并为了庇护中华宝藏,消灭日本特务的故事。本片经过设定配角陈启龙由于反感军阀混战而分开军队,成为探险家,每次所得佣金皆分给伤残甲士这一设定,以及宁愿玉石俱焚,也不能让中华宝藏漂泊对手的重要情节,塑造了大义凛然、布满正能量的中国探险家的形象。片中的日本特务吉冈,夺取中国的宝藏为侵犯行动办事,侵犯者的罪罪行动昭然若揭。军阀之女金娜为帮助父亲摆脱日本人控制,四周搜寻玉帛,最初与吉冈玉石俱焚,这一悲剧性的结尾也揭穿了军阀混战实在是列强的代理人战争的历史究竟。
  1. ##### MediaInfo ######
  2. General
  3. Unique ID                                : 3399648991841307641144554399557290062 (0x28EBFA2E5F0936A2C400ABA0099084E)
  4. Complete name                            : Peng.Lai.Long.Guan.Zhi.Xu.Fu.Bao.Cang.2022.2160p.WEB-DL.H265.AAC-MOMOWEB.mkv
  5. Format                                   : Matroska
  6. Format version                           : Version 4
  7. File size                                : 1.40 GiB
  8. Duration                                 : 1 h 10 min
  9. Overall bit rate                         : 2 824 kb/s
  10. Encoded date                             : UTC 2022-07-28 07:42:35
  11. Writing application                      : mkvmerge v58.0.0 ('Supper's Ready') 64-bit
  12. Writing library                          : libebml v1.4.2 + libmatroska v1.6.4
  13. Video
  14. ID                                       : 1
  15. Format                                   : HEVC
  16. Format/Info                              : High Efficiency Video Coding
  17. Format profile                           : [email protected]@Main
  18. Codec ID                                 : V_MPEGH/ISO/HEVC
  19. Duration                                 : 1 h 10 min
  20. Bit rate                                 : 2 635 kb/s
  21. Width                                    : 3 840 pixels
  22. Height                                   : 1 632 pixels
  23. Display aspect ratio                     : 2.35:1
  24. Frame rate mode                          : Variable
  25. Frame rate                               : 23.926 FPS
  26. Original frame rate                      : 24.000 FPS
  27. Color space                              : YUV
  28. Chroma subsampling                       : 4:2:0
  29. Bit depth                                : 8 bits
  30. Bits/(Pixel*Frame)                       : 0.018
  31. Stream size                              : 1.30 GiB (93%)
  32. Language                                 : Chinese
  33. Default                                  : Yes
  34. Forced                                   : No
  35. Audio
  36. ID                                       : 2
  37. Format                                   : AAC LC
  38. Format/Info                              : Advanced Audio Codec Low Complexity
  39. Codec ID                                 : A_AAC-2
  40. Duration                                 : 1 h 10 min
  41. Bit rate                                 : 186 kb/s
  42. Channel(s)                               : 2 channels
  43. Channel layout                           : L R
  44. Sampling rate                            : 44.1 kHz
  45. Frame rate                               : 43.066 FPS (1024 SPF)
  46. Compression mode                         : Lossy
  47. Stream size                              : 94.4 MiB (7%)
  48. Language                                 : Chinese
  49. Default                                  : Yes
  50. Forced                                   : No
复制代码

















保举请利用qBittorrent,utorrent,transmission等标准BT软件下载!以获得最快速度。奉求保种!





回复

使用道具 举报

懒得打字嘛,点击右侧快捷回复 【右侧内容,后台自定义】
您需要登录后才可以回帖 登录 | 立即加入

本版积分规则

Archiver|小黑屋| 蓝光电影网 |网站地图

Copyright © 2021 Comsenz Inc. Powered by 蓝光电影网

蓝光电影网

本站内容由用户自主分享和转载自互联网,转载目的在于传递更多信息,并不代表本网赞同其观点和对其真实性负责。

如有侵权、违反国家法律政策行为,请联系我们,我们会第一时间及时清除和处理!

举报反馈邮箱:[email protected]

快速回复 返回顶部 返回列表