找回密码

蓝光电影网

查看: 92|回复: 1

[剧情] 被涂污的鸟[中文字幕].The.Painted.Bird.2019.1080p.BluRay.DTS.x264-MOMOHD 20.17GB

[复制链接]
蓝光币
8
发表于 2022-7-29 01:43:27 | 显示全部楼层 |阅读模式


◎标  题 被涂污的鸟
◎译  名 色鸟(港) / 异端鸟(台) / The Painted Bird
◎片  名 Nabarvené ptáče
◎年  代 2019
◎产  地 捷克 / 斯洛伐克 / 乌克兰
◎类  别 剧情 / 战争
◎语  言 捷克语 / 德语 / 俄语 / 斯拉夫共通语
◎上映日期 2019-09-03(威尼斯电影节) / 2019-09-12(捷克)
◎IMDb评分 7.4/10 (5474人评价)
◎IMDb链接 https://www.imdb.com/title/tt1667354/
◎豆瓣评分 8.1/10 (10044人评价)
◎豆瓣链接 https://movie.douban.com/subject/5327156/
◎片  长 169分钟
◎导  演 瓦茨拉夫·马尔豪尔 Václav Marhoul
◎编  剧 耶日·科辛斯基 Jerzy Kosinski
       瓦茨拉夫·马尔豪尔 Václav Marhoul
◎演  员 彼得·科特拉尔 Petr Kotlár
       斯特兰·斯卡斯加德 Stellan Skarsgård
       哈威·凯特尔 Harvey Keitel
       巴里·佩珀 Barry Pepper
       朱利安·山德斯 Julian Sands
       乌多·基尔 Udo Kier
       阿列克谢·克拉夫琴科 Aleksey Kravchenko
       提姆·卡尔克霍夫 Tim Kalkhof
       Jitka Cvancarová Jitka Cvancarová
       Irena Máchová Irena Máchová
       莱赫·德布里克 Lech Dyblik
       彼得·斯塔赫 Petr Stach
       Radim Fiala Radim Fiala
       Milan Simácek Milan Simácek
       Petr Vanek Petr Vanek
       帕维尔·克里兹 Pavel Kríz
◎标  签 战争 / 黑白 / 捷克 / 捷克电影 / 剧情 / 艺术 / 小说改编 / 2019
◎简  介
  该片改编自作家杰西·科辛斯基撰写的同名童贞作,原著围绕一个知名小男孩在东欧农村躲避烽火的履历展开,故事从社会、历史等分歧角度,深思与了解边沿人物的荒诞行为。
  1. ##### MediaInfo ######
  2. General
  3. Unique ID                                : 214982838075676156795588618413956262676 (0xA1BC304405922A2E61C027AF4929EB14)
  4. Complete name                            : The.Painted.Bird.2019.1080p.BluRay.DTS.x264-MOMOHD.mkv
  5. Format                                   : Matroska
  6. Format version                           : Version 4
  7. File size                                : 20.2 GiB
  8. Duration                                 : 2 h 49 min
  9. Overall bit rate                         : 17.0 Mb/s
  10. Movie name                               : The Painted Bird [2019] 1080p BluRay DTS x264-PTer [iJiA]
  11. Encoded date                             : UTC 2020-05-12 13:31:06
  12. Writing application                      : mkvmerge v37.0.0 ('Leave It') 64-bit
  13. Writing library                          : libebml v1.3.9 + libmatroska v1.5.2
  14. Video
  15. ID                                       : 1
  16. Format                                   : AVC
  17. Format/Info                              : Advanced Video Codec
  18. Format profile                           : [email protected]
  19. Format settings                          : CABAC / 5 Ref Frames
  20. Format settings, CABAC                   : Yes
  21. Format settings, Reference frames        : 5 frames
  22. Codec ID                                 : V_MPEG4/ISO/AVC
  23. Duration                                 : 2 h 49 min
  24. Bit rate                                 : 15.5 Mb/s
  25. Width                                    : 1 920 pixels
  26. Height                                   : 806 pixels
  27. Display aspect ratio                     : 2.40:1
  28. Frame rate mode                          : Constant
  29. Frame rate                               : 23.976 (24000/1001/53875) FPS
  30. Color space                              : YUV
  31. Chroma subsampling                       : 4:2:0
  32. Bit depth                                : 8 bits
  33. Scan type                                : Progressive
  34. Bits/(Pixel*Frame)                       : 0.418
  35. Stream size                              : 18.3 GiB (91%)
  36. Title                                    : 1080P Video
  37. Writing library                          : x264 core 158 r2984+47 456d10a t_mod_New [[email protected] X86_64]
  38. Encoding settings                        : cabac=1 / ref=5 / deblock=1:-3:-3 / analyse=0x3:0x133 / me=umh / subme=11 / psy=1 / fade_compensate=0.00 / psy_rd=1.02:0.00 / mixed_ref=1 / me_range=32 / chroma_me=1 / trellis=2 / 8x8dct=1 / cqm=0 / deadzone=21,11 / fast_pskip=0 / chroma_qp_offset=-2 / threads=6 / lookahead_threads=1 / sliced_threads=0 / nr=0 / decimate=0 / interlaced=0 / NTM4NzU= / bluray_compat=0 / constrained_intra=0 / fgo=0 / bframes=10 / b_pyramid=2 / b_adapt=2 / b_bias=0 / direct=3 / weightb=1 / open_gop=0 / weightp=2 / keyint=250 / keyint_min=23 / NTM4NzU=uuDQuD2mJt9fsCf / scenecut=40 / intra_refresh=0 / rc_lookahead=250 / rc=crf / mbtree=0 / crf=20.0000 / qcomp=0.60 / qpmin=0:0:0 / qpmax=69:69:69 / qpstep=4 / vbv_maxrate=62500 / vbv_bufsize=78125 / crf_max=0.0 / nal_hrd=none / filler=0 / NTM4NzU=LmsMAP37EqsCpk / ip_ratio=1.30 / pb_ratio=1.20 / aq=3:0.80 / aq-sensitivity=10.00 / aq-factor=1.00:1.00:1.00 / aq2=0 / aq3=0 / zones=232886,243663,crf=23
  39. Language                                 : sla
  40. Default                                  : Yes
  41. Forced                                   : No
  42. Color range                              : Limited
  43. Color primaries                          : BT.709
  44. Matrix coefficients                      : BT.709
  45. Audio
  46. ID                                       : 2
  47. Format                                   : DTS
  48. Format/Info                              : Digital Theater Systems
  49. Codec ID                                 : A_DTS
  50. Duration                                 : 2 h 49 min
  51. Bit rate mode                            : Constant
  52. Bit rate                                 : 1 509 kb/s
  53. Channel(s)                               : 6 channels
  54. Channel layout                           : C L R Ls Rs LFE
  55. Sampling rate                            : 48.0 kHz
  56. Frame rate                               : 93.750 FPS (512 SPF)
  57. Bit depth                                : 24 bits
  58. Compression mode                         : Lossy
  59. Stream size                              : 1.79 GiB (9%)
  60. Title                                    : Audio
  61. Language                                 : sla
  62. Default                                  : Yes
  63. Forced                                   : No
  64. Text #1
  65. ID                                       : 3
  66. Format                                   : UTF-8
  67. Codec ID                                 : S_TEXT/UTF8
  68. Codec ID/Info                            : UTF-8 Plain Text
  69. Duration                                 : 2 h 34 min
  70. Bit rate                                 : 3 b/s
  71. Count of elements                        : 189
  72. Stream size                              : 4.25 KiB (0%)
  73. Title                                    : English SRT
  74. Language                                 : English
  75. Default                                  : Yes
  76. Forced                                   : No
  77. Text #2
  78. ID                                       : 4
  79. Format                                   : UTF-8
  80. Codec ID                                 : S_TEXT/UTF8
  81. Codec ID/Info                            : UTF-8 Plain Text
  82. Duration                                 : 2 h 40 min
  83. Bit rate                                 : 3 b/s
  84. Count of elements                        : 208
  85. Stream size                              : 4.22 KiB (0%)
  86. Title                                    : Chinese
  87. Language                                 : Chinese
  88. Default                                  : No
  89. Forced                                   : No
  90. Text #3
  91. ID                                       : 5
  92. Format                                   : UTF-8
  93. Codec ID                                 : S_TEXT/UTF8
  94. Codec ID/Info                            : UTF-8 Plain Text
  95. Duration                                 : 2 h 38 min
  96. Bit rate                                 : 3 b/s
  97. Count of elements                        : 190
  98. Stream size                              : 4.17 KiB (0%)
  99. Title                                    : Hungarian SRT
  100. Language                                 : Hungarian
  101. Default                                  : No
  102. Forced                                   : No
  103. Text #4
  104. ID                                       : 6
  105. Format                                   : PGS
  106. Muxing mode                              : zlib
  107. Codec ID                                 : S_HDMV/PGS
  108. Codec ID/Info                            : Picture based subtitle format used on BDs/HD-DVDs
  109. Duration                                 : 2 h 31 min
  110. Bit rate                                 : 10.6 kb/s
  111. Count of elements                        : 869
  112. Stream size                              : 11.4 MiB (0%)
  113. Title                                    : Czech
  114. Language                                 : Czech
  115. Default                                  : No
  116. Forced                                   : No
  117. Text #5
  118. ID                                       : 7
  119. Format                                   : PGS
  120. Muxing mode                              : zlib
  121. Codec ID                                 : S_HDMV/PGS
  122. Codec ID/Info                            : Picture based subtitle format used on BDs/HD-DVDs
  123. Duration                                 : 2 h 36 min
  124. Bit rate                                 : 13.1 kb/s
  125. Count of elements                        : 952
  126. Stream size                              : 14.6 MiB (0%)
  127. Title                                    : Frech
  128. Language                                 : French
  129. Default                                  : No
  130. Forced                                   : No
  131. Text #6
  132. ID                                       : 8
  133. Format                                   : PGS
  134. Muxing mode                              : zlib
  135. Codec ID                                 : S_HDMV/PGS
  136. Codec ID/Info                            : Picture based subtitle format used on BDs/HD-DVDs
  137. Duration                                 : 2 h 36 min
  138. Bit rate                                 : 13.9 kb/s
  139. Count of elements                        : 932
  140. Stream size                              : 15.5 MiB (0%)
  141. Title                                    : German
  142. Language                                 : German
  143. Default                                  : No
  144. Forced                                   : No
  145. Text #7
  146. ID                                       : 9
  147. Format                                   : PGS
  148. Muxing mode                              : zlib
  149. Codec ID                                 : S_HDMV/PGS
  150. Codec ID/Info                            : Picture based subtitle format used on BDs/HD-DVDs
  151. Duration                                 : 2 h 36 min
  152. Bit rate                                 : 11.7 kb/s
  153. Count of elements                        : 934
  154. Stream size                              : 13.0 MiB (0%)
  155. Title                                    : Italian
  156. Language                                 : Italian
  157. Default                                  : No
  158. Forced                                   : No
  159. Text #8
  160. ID                                       : 10
  161. Format                                   : PGS
  162. Muxing mode                              : zlib
  163. Codec ID                                 : S_HDMV/PGS
  164. Codec ID/Info                            : Picture based subtitle format used on BDs/HD-DVDs
  165. Duration                                 : 2 h 36 min
  166. Bit rate                                 : 12.7 kb/s
  167. Count of elements                        : 988
  168. Stream size                              : 14.2 MiB (0%)
  169. Title                                    : Polihs
  170. Language                                 : Polish
  171. Default                                  : No
  172. Forced                                   : No
  173. Text #9
  174. ID                                       : 11
  175. Format                                   : PGS
  176. Muxing mode                              : zlib
  177. Codec ID                                 : S_HDMV/PGS
  178. Codec ID/Info                            : Picture based subtitle format used on BDs/HD-DVDs
  179. Duration                                 : 2 h 36 min
  180. Bit rate                                 : 11.7 kb/s
  181. Count of elements                        : 987
  182. Stream size                              : 13.1 MiB (0%)
  183. Title                                    : Slovak
  184. Language                                 : Slovak
  185. Default                                  : No
  186. Forced                                   : No
  187. Text #10
  188. ID                                       : 12
  189. Format                                   : PGS
  190. Muxing mode                              : zlib
  191. Codec ID                                 : S_HDMV/PGS
  192. Codec ID/Info                            : Picture based subtitle format used on BDs/HD-DVDs
  193. Duration                                 : 2 h 36 min
  194. Bit rate                                 : 12.2 kb/s
  195. Count of elements                        : 1036
  196. Stream size                              : 13.7 MiB (0%)
  197. Title                                    : Ukrainian
  198. Language                                 : Ukrainian
  199. Default                                  : No
  200. Forced                                   : No
  201. Text #11
  202. ID                                       : 13
  203. Format                                   : PGS
  204. Muxing mode                              : zlib
  205. Codec ID                                 : S_HDMV/PGS
  206. Codec ID/Info                            : Picture based subtitle format used on BDs/HD-DVDs
  207. Duration                                 : 2 h 36 min
  208. Bit rate                                 : 12.3 kb/s
  209. Count of elements                        : 959
  210. Stream size                              : 13.8 MiB (0%)
  211. Title                                    : Uncoded languages
  212. Default                                  : No
  213. Forced                                   : No
  214. Menu
  215. 00:00:00.000                             : en:Chapter 01
  216. 00:02:39.117                             : en:Chapter 02
  217. 00:16:06.174                             : en:Chapter 03
  218. 00:27:59.177                             : en:Chapter 04
  219. 00:42:58.618                             : en:Chapter 05
  220. 00:57:26.151                             : en:Chapter 06
  221. 01:18:39.298                             : en:Chapter 07
  222. 01:41:46.726                             : en:Chapter 08
  223. 02:00:53.079                             : en:Chapter 09
  224. 02:24:10.934                             : en:Chapter 10
复制代码

















保举请利用qBittorrent,utorrent,transmission等标准BT软件下载!以获得最快速度。奉求保种!





回复

使用道具 举报

蓝光币
157
发表于 2022-7-29 10:57:19 | 显示全部楼层
感谢分享
回复

使用道具 举报

懒得打字嘛,点击右侧快捷回复 【右侧内容,后台自定义】
您需要登录后才可以回帖 登录 | 立即加入

本版积分规则

Archiver|小黑屋| 蓝光电影网 |网站地图

Copyright © 2021 Comsenz Inc. Powered by 蓝光电影网

蓝光电影网

本站内容由用户自主分享和转载自互联网,转载目的在于传递更多信息,并不代表本网赞同其观点和对其真实性负责。

如有侵权、违反国家法律政策行为,请联系我们,我们会第一时间及时清除和处理!

举报反馈邮箱:[email protected]

快速回复 返回顶部 返回列表