找回密码

蓝光电影网

查看: 213|回复: 1

[2160p] 地狱男爵:血皇后崛起[简繁英双语字幕].Hellboy.2019.UHD.BluRay.2160p.TrueHD(Atmos).7.1.x265.10bit.HDR-ALT 15.81GB

[复制链接]
蓝光币
8
发表于 2022-7-29 01:47:17 | 显示全部楼层 |阅读模式


◎标  题 天堂男爵:血皇后突起
◎译  名 天堂怪客:血后的突起(台) / Hellboy: Rise of the Blood Queen / Hellboy - Call of Darkness
◎片  名 Hellboy
◎年  代 2019
◎产  地 美国
◎类  别 行动 / 奇异 / 冒险
◎语  言 英语
◎上映日期 2020-11-09(中国大陆) / 2019-04-12(美国)
◎IMDb评分 5.2/10 (84986人评价)
◎IMDb链接 https://www.imdb.com/title/tt2274648/
◎豆瓣评分 5.7/10 (55391人评价)
◎豆瓣链接 https://movie.douban.com/subject/24750460/
◎片  长 120分钟 / 114分钟(中国大陆)
◎导  演 尼尔·马歇尔 Neil Marshall
◎编  剧 安德鲁·考斯比 Andrew Cosby
       迈克·米格诺拉 Mike Mignola
◎演  员 大卫·哈伯 David Harbour
       米拉·乔沃维奇 Milla Jovovich
       金大贤 Daniel Dae Kim
       伊恩·麦柯肖恩 Ian McShane
       埃利斯戴尔·皮特里 Alistair Petrie
       萨莎·莱恩 Sasha Lane
       托马斯·哈登·丘奇 Thomas Haden Church
       佩内洛普·米契尔 Penelope Mitchell
       苏菲·奥康内多 Sophie Okonedo
       布莱恩·格里森 Brian Gleeson
       克里斯蒂娜·克莱伯 Kristina Klebe
       阿什丽·艾德纳 Ashley Edner
       道格拉斯·泰特 Douglas Tait
       贝恩·科拉科 Bern Collaço
       阿塔纳斯·斯雷布雷夫 Atanas Srebrev
       凡妮莎·艾科尔兹 Vanessa Eichholz
       莱拉·莫尔斯 Laila Morse
       马里奥·德·拉·罗萨 Mario de la Rosa
◎标  签 天堂男爵 / 血腥 / 美国 / 奇异 / 漫画改编 / 行动 / 魔幻 / 科幻
◎简  介
    天堂男爵(大卫·哈伯 David Harbour 饰)本是作为生物兵器被纳粹呼唤出来的怪物,却荣幸获得了布鲁姆教授(伊恩·麦柯肖恩 Ian McShane 饰)的救援和帮助,在教授的教导和练习之下,天堂男爵渐渐长大,以后加入了超自然观察防御局,成为结局里的王牌战将。                                                                      某日,被弹压了千年的女巫血皇后(米拉·乔沃维奇 Milla Jovovich 饰)冲破了收留,为了报复人类,她从天堂里呼唤来一批可怕的怪兽,攻下了伦敦。有才能和血皇后匹敌的,只要天堂男爵一人,在通灵少女爱丽丝(萨莎·莱恩 Sasha Lane 饰)和上校本(金大贤 饰)的帮助下,一场艰辛且旷日持久的战役起头了。
  1. ##### MediaInfo ######
  2. General
  3. Unique ID                                : 142769281105271628041111739421266135199 (0x6B685D05498DFC3B70D5E928267DC89F)
  4. Complete name                            : Hellboy.2019.UHD.BluRay.2160p.TrueHD(Atmos).7.1.x265.10bit.HDR-ALT.mkv
  5. Format                                   : Matroska
  6. Format version                           : Version 4
  7. File size                                : 15.8 GiB
  8. Duration                                 : 2 h 1 min
  9. Overall bit rate mode                    : Variable
  10. Overall bit rate                         : 18.7 Mb/s
  11. Encoded date                             : UTC 2019-07-20 17:43:50
  12. Writing application                      : mkvmerge v35.0.0 ('All The Love In The World') 64-bit
  13. Writing library                          : libebml v1.3.9 + libmatroska v1.5.2
  14. Video
  15. ID                                       : 1
  16. Format                                   : HEVC
  17. Format/Info                              : High Efficiency Video Coding
  18. Format profile                           : Main [email protected]@High
  19. HDR format                               : SMPTE ST 2086, HDR10 compatible
  20. Codec ID                                 : V_MPEGH/ISO/HEVC
  21. Duration                                 : 2 h 1 min
  22. Bit rate                                 : 12.5 Mb/s
  23. Width                                    : 3 840 pixels
  24. Height                                   : 1 606 pixels
  25. Display aspect ratio                     : 2.40:1
  26. Frame rate mode                          : Constant
  27. Frame rate                               : 23.976 (24000/1001/53875) FPS
  28. Color space                              : YUV
  29. Chroma subsampling                       : 4:2:0 (Type 2)
  30. Bit depth                                : 10 bits
  31. Bits/(Pixel*Frame)                       : 0.085
  32. Stream size                              : 10.6 GiB (67%)
  33. Title                                    : HEVC, [email protected]@High, 24/1.001 fps @ 12527 kbps
  34. Writing library                          : x265 3.0_Au+4-dcbec33bfb0f:[Windows][GCC 8.2.1][64 bit] 10bit
  35. Encoding settings                        : cpuid=538751111039 / frame-threads=5 / numa-pools=44,44 / wpp / no-pmode / no-pme / no-psnr / no-ssim / log-level=2 / input-csp=1 / input-res=3840x1606 / interlace=0 / total-frames=174120 / level-idc=51 / high-tier=1 / uhd-bd=0 / ref=4 / no-allow-non-conformance / repeat-headers / annexb / no-aud / hrd / info / hash=0 / no-temporal-layers / no-open-gop / min-keyint=24 / keyint=240 / gop-lookahead=0 / bframes=8 / b-adapt=2 / b-pyramid / bframe-bias=0 / rc-lookahead=25 / lookahead-slices=0 / NTM4NzU=uuDQuD2mJt9fsCf / scenecut=40 / radl=0 / no-splice / no-intra-refresh / ctu=64 / min-cu-size=8 / no-rect / no-amp / max-tu-size=32 / tu-inter-depth=3 / tu-intra-depth=3 / limit-tu=4 / rdoq-level=2 / dynamic-rd=0.00 / no-ssim-rd / signhide / no-tskip / nr-intra=0 / nr-inter=0 / no-constrained-intra / no-strong-intra-smoothing / max-merge=4 / limit-refs=1 / limit-modes / me=3 / subme=4 / merange=25 / temporal-mvp / weightp / weightb / no-analyze-src-pics / deblock=-3:-3 / no-sao / no-sao-non-deblock / rd=6 / no-early-skip / rskip / no-fast-intra / no-tskip-fast / no-cu-lossless / b-intra / no-splitrd-skip / rdpenalty=0 / psy-rd=2.00 / psy-rdoq=1.00 / no-rd-refine / no-lossless / cbqpoffs=0 / crqpoffs=0 / rc=crf / crf=18.5 / qcomp=0.65 / qpstep=4 / stats-write=0 / stats-read=0 / vbv-maxrate=160000 / vbv-bufsize=160000 / vbv-init=0.9 / crf-max=0.0 / crf-min=0.0 / ipratio=1.30 / pbratio=1.20 / aq-mode=3 / aq-strength=0.85 / cutree / zone-count=0 / no-strict-cbr / qg-size=32 / no-rc-grain / qpmax=69 / qpmin=0 / no-const-vbv / sar=1 / overscan=0 / videoformat=5 / range=0 / colorprim=9 / transfer=16 / colormatrix=9 / chromaloc=1 / chromaloc-top=2 / chromaloc-bottom=2 / display-window=0 / master-display=G(13250,34500)B(7500,3000)R(34000,16000)WP(15635,16450)L(40000000,10) / max-cll=3947,542 / min-luma=0 / max-luma=1023 / log2-max-poc-lsb=8 / vui-timing-info / vui-hrd-info / slices=1 / no-opt-qp-pps / no-opt-ref-list-length-pps / no-multi-pass-opt-rps / scenecut-bias=0.05 / no-opt-cu-delta-qp / no-aq-motion / hdr / hdr-opt / no-dhdr10-opt / no-idr-recovery-sei / analysis-reuse-level=5 / scale-factor=0 / refine-intra=0 / refine-inter=0 / refine-mv=0 / refine-ctu-distortion=0 / no-limit-sao / ctu-info=0 / no-lowpass-dct / refine-analysis-type=0 / copy-pic=1 / max-ausize-factor=1.0 / no-dynamic-refine / no-single-sei / no-hevc-aq / qp-adaptation-range=1.00
  36. Language                                 : English
  37. Default                                  : Yes
  38. Forced                                   : No
  39. Color range                              : Limited
  40. Color primaries                          : BT.2020
  41. Transfer characteristics                 : PQ
  42. Matrix coefficients                      : BT.2020 non-constant
  43. Mastering display color primaries        : Display P3
  44. Mastering display luminance              : min: 0.0010 cd/m2, max: 4000 cd/m2
  45. Maximum Content Light Level              : 3947 cd/m2
  46. Maximum Frame-Average Light Level        : 542 cd/m2
  47. Audio #1
  48. ID                                       : 2
  49. Format                                   : MLP FBA 16-ch
  50. Format/Info                              : Meridian Lossless Packing FBA with 16-channel presentation
  51. Commercial name                          : Dolby TrueHD with Dolby Atmos
  52. Codec ID                                 : A_TRUEHD
  53. Duration                                 : 2 h 1 min
  54. Bit rate mode                            : Variable
  55. Bit rate                                 : 5 255 kb/s
  56. Maximum bit rate                         : 9 408 kb/s
  57. Channel(s)                               : 8 channels
  58. Channel layout                           : L R C LFE Ls Rs Lb Rb
  59. Sampling rate                            : 48.0 kHz
  60. Frame rate                               : 1 200.000 FPS (40 SPF)
  61. Compression mode                         : Lossless
  62. Stream size                              : 4.44 GiB (28%)
  63. Title                                    : English Dolby TrueHD 7.1 (Atmos) @ 5008 kbps
  64. Language                                 : English
  65. Default                                  : Yes
  66. Forced                                   : No
  67. Number of dynamic objects                : 15
  68. Bed channel count                        : 1 channel
  69. Bed channel configuration                : LFE
  70. Audio #2
  71. ID                                       : 3
  72. Format                                   : AC-3
  73. Format/Info                              : Audio Coding 3
  74. Commercial name                          : Dolby Digital
  75. Codec ID                                 : A_AC3
  76. Duration                                 : 2 h 1 min
  77. Bit rate mode                            : Constant
  78. Bit rate                                 : 448 kb/s
  79. Channel(s)                               : 6 channels
  80. Channel layout                           : L R C LFE Ls Rs
  81. Sampling rate                            : 48.0 kHz
  82. Frame rate                               : 31.250 FPS (1536 SPF)
  83. Compression mode                         : Lossy
  84. Stream size                              : 388 MiB (2%)
  85. Title                                    : English Dolby 5.1-EX @ 448 kbps
  86. Language                                 : English
  87. Service kind                             : Complete Main
  88. Default                                  : No
  89. Forced                                   : No
  90. Audio #3
  91. ID                                       : 4
  92. Format                                   : AC-3
  93. Format/Info                              : Audio Coding 3
  94. Commercial name                          : Dolby Digital
  95. Codec ID                                 : A_AC3
  96. Duration                                 : 2 h 1 min
  97. Bit rate mode                            : Constant
  98. Bit rate                                 : 192 kb/s
  99. Channel(s)                               : 2 channels
  100. Channel layout                           : L R
  101. Sampling rate                            : 48.0 kHz
  102. Frame rate                               : 31.250 FPS (1536 SPF)
  103. Compression mode                         : Lossy
  104. Stream size                              : 166 MiB (1%)
  105. Title                                    : English Dolby Digital Audio 2.0 @ 192 kbps  Commentary
  106. Language                                 : English
  107. Service kind                             : Complete Main
  108. Default                                  : No
  109. Forced                                   : No
  110. Text #1
  111. ID                                       : 5
  112. Format                                   : PGS
  113. Codec ID                                 : S_HDMV/PGS
  114. Codec ID/Info                            : Picture based subtitle format used on BDs/HD-DVDs
  115. Duration                                 : 2 h 0 min
  116. Bit rate                                 : 36.1 kb/s
  117. Count of elements                        : 2726
  118. Stream size                              : 31.1 MiB (0%)
  119. Title                                    : Eng/SUP
  120. Language                                 : English
  121. Default                                  : No
  122. Forced                                   : No
  123. Text #2
  124. ID                                       : 6
  125. Format                                   : PGS
  126. Codec ID                                 : S_HDMV/PGS
  127. Codec ID/Info                            : Picture based subtitle format used on BDs/HD-DVDs
  128. Duration                                 : 2 h 0 min
  129. Bit rate                                 : 43.2 kb/s
  130. Count of elements                        : 3464
  131. Stream size                              : 37.2 MiB (0%)
  132. Title                                    : Eng/SUP  SDH
  133. Language                                 : English
  134. Default                                  : No
  135. Forced                                   : No
  136. Text #3
  137. ID                                       : 7
  138. Format                                   : PGS
  139. Codec ID                                 : S_HDMV/PGS
  140. Codec ID/Info                            : Picture based subtitle format used on BDs/HD-DVDs
  141. Duration                                 : 2 h 0 min
  142. Bit rate                                 : 23.0 kb/s
  143. Count of elements                        : 3144
  144. Stream size                              : 19.8 MiB (0%)
  145. Title                                    : Chs/SUP  简体
  146. Language                                 : Chinese
  147. Default                                  : No
  148. Forced                                   : No
  149. Text #4
  150. ID                                       : 8
  151. Format                                   : PGS
  152. Codec ID                                 : S_HDMV/PGS
  153. Codec ID/Info                            : Picture based subtitle format used on BDs/HD-DVDs
  154. Duration                                 : 2 h 0 min
  155. Bit rate                                 : 23.7 kb/s
  156. Count of elements                        : 3144
  157. Stream size                              : 20.4 MiB (0%)
  158. Title                                    : Cht/SUP  繁体
  159. Language                                 : Chinese
  160. Default                                  : No
  161. Forced                                   : No
  162. Text #5
  163. ID                                       : 9
  164. Format                                   : PGS
  165. Codec ID                                 : S_HDMV/PGS
  166. Codec ID/Info                            : Picture based subtitle format used on BDs/HD-DVDs
  167. Duration                                 : 2 h 0 min
  168. Bit rate                                 : 39.5 kb/s
  169. Count of elements                        : 3146
  170. Stream size                              : 34.0 MiB (0%)
  171. Title                                    : Chs/SUP  简英双语
  172. Language                                 : Chinese
  173. Default                                  : Yes
  174. Forced                                   : No
  175. Text #6
  176. ID                                       : 10
  177. Format                                   : PGS
  178. Codec ID                                 : S_HDMV/PGS
  179. Codec ID/Info                            : Picture based subtitle format used on BDs/HD-DVDs
  180. Duration                                 : 2 h 0 min
  181. Bit rate                                 : 40.2 kb/s
  182. Count of elements                        : 3146
  183. Stream size                              : 34.7 MiB (0%)
  184. Title                                    : Cht/SUP  繁英双语
  185. Language                                 : Chinese
  186. Default                                  : No
  187. Forced                                   : No
  188. Menu
  189. 00:00:00.000                             : en:绗?01 绔?
  190. 00:08:54.284                             : en:绗?02 绔?
  191. 00:14:41.714                             : en:绗?03 绔?
  192. 00:22:34.853                             : en:绗?04 绔?
  193. 00:30:12.602                             : en:绗?05 绔?
  194. 00:35:48.730                             : en:绗?06 绔?
  195. 00:43:50.461                             : en:绗?07 绔?
  196. 00:53:17.611                             : en:绗?08 绔?
  197. 01:01:09.791                             : en:绗?09 绔?
  198. 01:09:24.786                             : en:绗?10 绔?
  199. 01:17:32.606                             : en:绗?11 绔?
  200. 01:26:07.579                             : en:绗?12 绔?
  201. 01:28:37.896                             : en:绗?13 绔?
  202. 01:37:58.456                             : en:绗?14 绔?
  203. 01:45:49.969                             : en:绗?15 绔?
  204. 01:51:06.660                             : en:绗?16 绔?
复制代码

















保举请利用qBittorrent,utorrent,transmission等标准BT软件下载!以获得最快速度。奉求保种!





回复

使用道具 举报

蓝光币
640
发表于 2022-7-29 11:35:03 | 显示全部楼层
感谢分享
回复

使用道具 举报

懒得打字嘛,点击右侧快捷回复 【右侧内容,后台自定义】
您需要登录后才可以回帖 登录 | 立即加入

本版积分规则

Archiver|小黑屋| 蓝光电影网 |网站地图

Copyright © 2021 Comsenz Inc. Powered by 蓝光电影网

蓝光电影网

本站内容由用户自主分享和转载自互联网,转载目的在于传递更多信息,并不代表本网赞同其观点和对其真实性负责。

如有侵权、违反国家法律政策行为,请联系我们,我们会第一时间及时清除和处理!

举报反馈邮箱:[email protected]

快速回复 返回顶部 返回列表