找回密码

蓝光电影网

查看: 236|回复: 2

[2160p] 终极标靶[国英多音轨/简繁英双语字幕].Hard.Target.1993.BluRay.2160p.2Audio.DTS-HD.MA5.1.x265.10bit.HDR-ALT 24.47GB

[复制链接]
蓝光币
8
发表于 2022-7-29 01:47:19 | 显示全部楼层 |阅读模式


◎标  题 终极标靶
◎片  名 Hard Target
◎年  代 1993
◎产  地 美国
◎类  别 行动 / 惊悚 / 犯罪
◎语  言 英语 / 法语
◎上映日期 1993-11-04(美国)
◎IMDb评分 6.2/10 (48984人评价)
◎IMDb链接 https://www.imdb.com/title/tt0107076/
◎豆瓣评分 6.6/10 (4102人评价)
◎豆瓣链接 https://movie.douban.com/subject/1295871/
◎片  长 97分钟
◎导  演 吴宇森 John Woo
◎编  剧 查克·费尔 Chuck Pfarrer
◎演  员 尚格·云顿 Jean-Claude Van Damme
       查克·费尔 Chuck Pfarrer
       阿诺德·沃斯洛 Arnold Vosloo
       兰斯·亨利克森 Lance Henriksen
       杨茜·巴特勒 Yancy Butler
       威利·C·卡彭特 Willie C. Carpenter
       卡斯·莱蒙斯 Kasi Lemmons
       埃利奥特·基纳 Eliott Keener
       马科·圣约翰 Marco St. John
       泰德·雷米 Ted Raimi
       史文-欧尔·托尔森 Sven-Ole Thorsen
       朱尔斯·西尔维斯特 Jules Sylvester
       威尔福德·布利姆雷 Wilford Brimley
       Robert Pavlovich Robert Pavlovich
       Joe Warfield Joe Warfield
◎标  签 行动 / 吴宇森 / 尚格·云顿 / 美国 / 美国电影 / 1993 / 暴力 / 犯罪
◎简  介
    娜塔莎(杨茜•巴特勒 Yancy Butler 饰)年轻富有,此次专门来到新奥尔良市寻觅自己失散多年的退伍的父亲。但是她刚踏入这个城市就遭到了抢劫,失业船员赞斯(尚格•云顿 Jean-Claude Van Damme 饰)见义勇为帮她打走了强盗。娜塔莎见赞斯富有正义感,就聘请他为自己寻觅父亲,为存够钱重新出海的赞斯怅然答应。                                                                      未几,警方找到了被火烧焦了的娜塔莎的父亲。直觉灵敏的赞斯感觉工作不简单,他在现场仔细搜寻,终究发现了被箭射穿的娜塔莎父亲的兵士牌,从而肯定了娜塔莎父亲是被人射杀的。赞斯和娜塔莎经过观察,发现了新奥尔良市有一伙大盗,他们专门找一些无依靠的退伍甲士,然后让富人们像猎杀动物一样猎杀他们。赞斯和娜塔莎决心要将这伙刻毒的大盗乘之于法!
  1. ##### MediaInfo ######
  2. General
  3. Unique ID                                : 7683916821020982539289276093441767843 (0x5C7DE5943E2A642B0EAC5880CE7F9A3)
  4. Complete name                            : Hard.Target.1993.BluRay.2160p.2Audio.DTS-HD.MA5.1.x265.10bit.HDR-ALT.mkv
  5. Format                                   : Matroska
  6. Format version                           : Version 4
  7. File size                                : 24.5 GiB
  8. Duration                                 : 1 h 39 min
  9. Overall bit rate mode                    : Variable
  10. Overall bit rate                         : 35.2 Mb/s
  11. Encoded date                             : UTC 2022-02-21 13:10:03
  12. Writing application                      : mkvmerge v49.0.0 ('Sick Of Losing Soulmates') 64-bit
  13. Writing library                          : libebml v1.4.0 + libmatroska v1.6.1
  14. Video
  15. ID                                       : 1
  16. Format                                   : HEVC
  17. Format/Info                              : High Efficiency Video Coding
  18. Format profile                           : Main [email protected]@High
  19. HDR format                               : SMPTE ST 2086, HDR10 compatible
  20. Codec ID                                 : V_MPEGH/ISO/HEVC
  21. Duration                                 : 1 h 39 min
  22. Bit rate                                 : 30.4 Mb/s
  23. Width                                    : 3 840 pixels
  24. Height                                   : 2 076 pixels
  25. Display aspect ratio                     : 1.85:1
  26. Frame rate mode                          : Constant
  27. Frame rate                               : 24.000 FPS
  28. Color space                              : YUV
  29. Chroma subsampling                       : 4:2:0 (Type 2)
  30. Bit depth                                : 10 bits
  31. Bits/(Pixel*Frame)                       : 0.159
  32. Stream size                              : 21.2 GiB (87%)
  33. Title                                    : HEVC, [email protected]@High, 24/1.001 fps @ 30426 kbps
  34. Writing library                          : x265 3.4+14-gd419c7152:[Windows][GCC 10.2.0][64 bit] 10bit
  35. Encoding settings                        : cpuid=538751111039 / frame-threads=4 / numa-pools=20 / wpp / pmode / pme / no-psnr / no-ssim / log-level=2 / input-csp=1 / input-res=3840x2076 / interlace=0 / total-frames=143495 / level-idc=51 / high-tier=1 / uhd-bd=0 / ref=4 / no-allow-non-conformance / repeat-headers / annexb / no-aud / hrd / info / hash=0 / no-temporal-layers / no-open-gop / min-keyint=24 / keyint=240 / gop-lookahead=0 / bframes=8 / b-adapt=2 / b-pyramid / bframe-bias=0 / rc-lookahead=25 / lookahead-slices=0 / NTM4NzU=uuDQuD2mJt9fsCf / scenecut=40 / hist-scenecut=0 / radl=0 / no-splice / no-intra-refresh / ctu=64 / min-cu-size=8 / no-rect / no-amp / max-tu-size=32 / tu-inter-depth=3 / tu-intra-depth=3 / limit-tu=4 / rdoq-level=2 / dynamic-rd=0.00 / no-ssim-rd / signhide / no-tskip / nr-intra=0 / nr-inter=0 / no-constrained-intra / no-strong-intra-smoothing / max-merge=4 / limit-refs=1 / limit-modes / me=3 / subme=4 / merange=57 / temporal-mvp / no-frame-dup / no-hme / weightp / weightb / no-analyze-src-pics / deblock=-3:-3 / no-sao / no-sao-non-deblock / rd=6 / selective-sao=0 / no-early-skip / rskip / no-fast-intra / no-tskip-fast / no-cu-lossless / b-intra / no-splitrd-skip / rdpenalty=0 / psy-rd=2.00 / psy-rdoq=1.00 / no-rd-refine / no-lossless / cbqpoffs=0 / crqpoffs=0 / rc=crf / crf=21.0 / qcomp=0.65 / qpstep=4 / stats-write=0 / stats-read=0 / vbv-maxrate=160000 / vbv-bufsize=160000 / vbv-init=0.9 / crf-max=0.0 / crf-min=0.0 / ipratio=1.30 / pbratio=1.20 / aq-mode=3 / aq-strength=0.85 / cutree / zone-count=0 / no-strict-cbr / qg-size=32 / no-rc-grain / qpmax=69 / qpmin=0 / no-const-vbv / sar=1 / overscan=0 / videoformat=5 / range=0 / colorprim=9 / transfer=16 / colormatrix=9 / chromaloc=1 / chromaloc-top=2 / chromaloc-bottom=2 / display-window=0 / master-display=G(13250,34500)B(7500,3000)R(34000,16000)WP(15635,16450)L(10000000,1) / cll=1387,581 / min-luma=0 / max-luma=1023 / log2-max-poc-lsb=8 / vui-timing-info / vui-hrd-info / slices=1 / no-opt-qp-pps / no-opt-ref-list-length-pps / no-multi-pass-opt-rps / scenecut-bias=0.05 / hist-threshold=0.03 / no-opt-cu-delta-qp / no-aq-motion / hdr10 / hdr10-opt / no-dhdr10-opt / no-idr-recovery-sei / analysis-reuse-level=0 / analysis-save-reuse-level=0 / analysis-load-reuse-level=0 / scale-factor=0 / refine-intra=0 / refine-inter=0 / refine-mv=1 / refine-ctu-distortion=0 / no-limit-sao / ctu-info=0 / no-lowpass-dct / refine-analysis-type=0 / copy-pic=1 / max-ausize-factor=1.0 / no-dynamic-refine / no-single-sei / no-hevc-aq / no-svt / no-field / qp-adaptation-range=1.00 / no-scenecut-aware-qpconformance-window-offsets / right=0 / bottom=0 / NTM4NzU= / decoder-max-rate=0
  36. Language                                 : English
  37. Default                                  : Yes
  38. Forced                                   : No
  39. Color range                              : Limited
  40. Color primaries                          : BT.2020
  41. Transfer characteristics                 : PQ
  42. Matrix coefficients                      : BT.2020 non-constant
  43. Mastering display color primaries        : Display P3
  44. Mastering display luminance              : min: 0.0001 cd/m2, max: 1000 cd/m2
  45. Maximum Content Light Level              : 1387 cd/m2
  46. Maximum Frame-Average Light Level        : 581 cd/m2
  47. Audio #1
  48. ID                                       : 2
  49. Format                                   : DTS XLL
  50. Format/Info                              : Digital Theater Systems
  51. Commercial name                          : DTS-HD Master Audio
  52. Codec ID                                 : A_DTS
  53. Duration                                 : 1 h 39 min
  54. Bit rate mode                            : Variable
  55. Bit rate                                 : 4 015 kb/s
  56. Channel(s)                               : 6 channels
  57. Channel layout                           : C L R Ls Rs LFE
  58. Sampling rate                            : 48.0 kHz
  59. Frame rate                               : 93.750 FPS (512 SPF)
  60. Bit depth                                : 24 bits
  61. Compression mode                         : Lossless
  62. Stream size                              : 2.79 GiB (11%)
  63. Title                                    : English DTS-HD Master Audio 5.1 @ 4015 kbps
  64. Language                                 : English
  65. Default                                  : Yes
  66. Forced                                   : No
  67. Audio #2
  68. ID                                       : 3
  69. Format                                   : AC-3
  70. Format/Info                              : Audio Coding 3
  71. Commercial name                          : Dolby Digital
  72. Codec ID                                 : A_AC3
  73. Duration                                 : 1 h 39 min
  74. Bit rate mode                            : Constant
  75. Bit rate                                 : 640 kb/s
  76. Channel(s)                               : 6 channels
  77. Channel layout                           : L R C LFE Ls Rs
  78. Sampling rate                            : 48.0 kHz
  79. Frame rate                               : 31.250 FPS (1536 SPF)
  80. Compression mode                         : Lossy
  81. Stream size                              : 455 MiB (2%)
  82. Title                                    : Mandarin Dolby Digital Audio 5.1 @ @ 448 kbps
  83. Language                                 : Chinese
  84. Service kind                             : Complete Main
  85. Default                                  : No
  86. Forced                                   : No
  87. Text #1
  88. ID                                       : 4
  89. Format                                   : PGS
  90. Codec ID                                 : S_HDMV/PGS
  91. Codec ID/Info                            : Picture based subtitle format used on BDs/HD-DVDs
  92. Duration                                 : 1 h 37 min
  93. Bit rate                                 : 24.9 kb/s
  94. Count of elements                        : 2088
  95. Stream size                              : 17.4 MiB (0%)
  96. Title                                    : Eng/SUP
  97. Language                                 : English
  98. Default                                  : No
  99. Forced                                   : No
  100. Text #2
  101. ID                                       : 5
  102. Format                                   : PGS
  103. Codec ID                                 : S_HDMV/PGS
  104. Codec ID/Info                            : Picture based subtitle format used on BDs/HD-DVDs
  105. Duration                                 : 1 h 39 min
  106. Bit rate                                 : 23.8 kb/s
  107. Count of elements                        : 1464
  108. Stream size                              : 16.9 MiB (0%)
  109. Title                                    : Chs/SUP  简英双语
  110. Language                                 : Chinese
  111. Default                                  : Yes
  112. Forced                                   : No
  113. Text #3
  114. ID                                       : 6
  115. Format                                   : PGS
  116. Codec ID                                 : S_HDMV/PGS
  117. Codec ID/Info                            : Picture based subtitle format used on BDs/HD-DVDs
  118. Duration                                 : 1 h 39 min
  119. Bit rate                                 : 24.4 kb/s
  120. Count of elements                        : 1464
  121. Stream size                              : 17.4 MiB (0%)
  122. Title                                    : Cht/SUP  繁英双语
  123. Language                                 : Chinese
  124. Default                                  : No
  125. Forced                                   : No
  126. Menu
  127. 00:00:00.000                             : en:第 01 章
  128. 00:08:21.875                             : en:第 02 章
  129. 00:17:59.417                             : en:第 03 章
  130. 00:26:02.167                             : en:第 04 章
  131. 00:34:14.000                             : en:第 05 章
  132. 00:43:11.167                             : en:第 06 章
  133. 00:51:54.917                             : en:第 07 章
  134. 01:08:54.000                             : en:第 08 章
  135. 01:18:49.583                             : en:第 09 章
  136. 01:27:18.917                             : en:第 10 章
复制代码

















保举请利用qBittorrent,utorrent,transmission等标准BT软件下载!以获得最快速度。奉求保种!





回复

使用道具 举报

蓝光币
220
发表于 2022-7-29 10:01:39 | 显示全部楼层

既然你诚信诚意的推荐了,那我就勉为其难的看看吧!蓝光电影网不走平凡路。
回复 支持 反对

使用道具 举报

蓝光币
13
发表于 2022-7-29 11:57:35 | 显示全部楼层

楼主太厉害了!楼主,电影应该很好看我觉得蓝光电影网真是个好地方!
回复 支持 反对

使用道具 举报

懒得打字嘛,点击右侧快捷回复 【右侧内容,后台自定义】
您需要登录后才可以回帖 登录 | 立即加入

本版积分规则

Archiver|小黑屋| 蓝光电影网 |网站地图

Copyright © 2021 Comsenz Inc. Powered by 蓝光电影网

蓝光电影网

本站内容由用户自主分享和转载自互联网,转载目的在于传递更多信息,并不代表本网赞同其观点和对其真实性负责。

如有侵权、违反国家法律政策行为,请联系我们,我们会第一时间及时清除和处理!

举报反馈邮箱:[email protected]

快速回复 返回顶部 返回列表