找回密码

蓝光电影网

查看: 20|回复: 0

[剧情] 衣柜里的冒险王[中文字幕].The.Extraordinary.Journey.of.The.Fakir.2018.1080p.WEB-DL.H264.AAC-MOMOWEB 1.33GB

[复制链接]
蓝光币
7
发表于 2022-7-29 01:51:22 | 显示全部楼层 |阅读模式


◎标  题 衣柜里的冒险王
◎译  名 苦行僧的非凡旅程 / 困在宜家衣柜里的苦行僧 / 随着IKEA衣橱去观光(台)
◎片  名 The Extraordinary Journey of The Fakir
◎年  代 2018
◎产  地 法国 / 印度
◎类  别 笑剧 / 冒险
◎语  言 英语 / 印度语
◎上映日期 2019-11-29(中国大陆) / 2018-05-30(法国)
◎IMDb评分 6.8/10 (7525人评价)
◎IMDb链接 https://www.imdb.com/title/tt5371168/
◎豆瓣评分 7.0/10 (10571人评价)
◎豆瓣链接 https://movie.douban.com/subject/26715965/
◎片  长 92分钟
◎导  演 肯·斯科特 Ken Scott
◎编  剧 卢克·博西 Luc Bossi
       乔恩·戈德曼 Jon Goldman
       罗曼·普罗托拉斯 Romain Puértolas
       肯·斯科特 Ken Scott
◎演  员 丹努什 Dhanush
       贝热尼丝·贝乔 Bérénice Bejo
       艾琳·莫里亚蒂 Erin Moriarty
       巴克德·阿巴蒂 Barkhad Abdi
       热拉尔·朱尼奥 Gérard Jugnot
       本·米勒 Ben Miller
       阿贝尔·贾夫里 Abel Jafri
       莎拉·珍妮·拉布罗丝 Sarah-Jeanne Labrosse
       凯·葛利丹努 Kay Greidanus
       阿姆鲁塔·桑特 Amruta Sant
       希玛·比斯瓦斯 Seema Biswas
       克里斯蒂安·伯恩查特 Christian Bronchart
       斯特凡诺·卡塞蒂 Stefano Cassetti
       乌瓦曼古·科内利斯 Uwamungu Cornelis
       甘达夫·德万 Gandharv Dewan
       埃德温·吉莱特 Edwin Gillet
       奥姆卡·凯特卡 Omkar Ketkar
       波林·马雷查尔 Pauline Maréchal
       丹尼勒·尼西 Daniele Nisi
       哈蒂·辛格 Hearty Singh
       玛尔·索度佩 Mar Sodupe
       罗兰·拉斐特 Laurent Lafitte
       Valérie Ranchoux Valérie Ranchoux
◎简  介
  靠欺骗旅客钱财为生的印度陌头小混混阿贾,一向尽力攒钱想带母亲去巴黎,惋惜母亲没能等到这一天便归天了。因而,身上只要100欧元的阿贾带着母亲的骨灰踏上巴黎穷游之旅。为了省去留宿费阿贾藏在宜家的衣柜里,不意鬼使神差被运到英国,尔后辗转漂泊到西班牙、意大利、利比亚……一段出色非凡的冒险之旅由此展开。                                    
                              
  1. ##### MediaInfo ######
  2. General
  3. Complete name                            : The.Extraordinary.Journey.of.The.Fakir.2018.1080p.WEB-DL.H264.AAC-MOMOWEB.mp4
  4. Format                                   : MPEG-4
  5. Format profile                           : Base Media
  6. Codec ID                                 : isom (isom/iso2/avc1/mp41)
  7. File size                                : 1.33 GiB
  8. Duration                                 : 1 h 35 min
  9. Overall bit rate mode                    : Variable
  10. Overall bit rate                         : 1 986 kb/s
  11. Recorded date                            : 2020-03-30T10:26:55.6031141+08:00
  12. Writing application                      : Lavf58.32.104
  13. Video
  14. ID                                       : 1
  15. Format                                   : AVC
  16. Format/Info                              : Advanced Video Codec
  17. Format profile                           : [email protected]
  18. Format settings                          : CABAC / 4 Ref Frames
  19. Format settings, CABAC                   : Yes
  20. Format settings, Reference frames        : 4 frames
  21. Codec ID                                 : avc1
  22. Codec ID/Info                            : Advanced Video Coding
  23. Duration                                 : 1 h 35 min
  24. Bit rate                                 : 1 883 kb/s
  25. Width                                    : 1 920 pixels
  26. Height                                   : 802 pixels
  27. Display aspect ratio                     : 2.40:1
  28. Frame rate mode                          : Variable
  29. Frame rate                               : 24.000 FPS
  30. Minimum frame rate                       : 23.994 FPS
  31. Maximum frame rate                       : 24.006 FPS
  32. Color space                              : YUV
  33. Chroma subsampling                       : 4:2:0
  34. Bit depth                                : 8 bits
  35. Scan type                                : Progressive
  36. Bits/(Pixel*Frame)                       : 0.051
  37. Stream size                              : 1.26 GiB (95%)
  38. Color range                              : Limited
  39. Color primaries                          : BT.709
  40. Transfer characteristics                 : BT.709
  41. Matrix coefficients                      : BT.709
  42. Codec configuration box                  : avcC
  43. Audio
  44. ID                                       : 2
  45. Format                                   : AAC LC
  46. Format/Info                              : Advanced Audio Codec Low Complexity
  47. Codec ID                                 : mp4a-40-2
  48. Duration                                 : 1 h 35 min
  49. Bit rate mode                            : Variable
  50. Bit rate                                 : 96.0 kb/s
  51. Maximum bit rate                         : 99.4 kb/s
  52. Channel(s)                               : 2 channels
  53. Channel layout                           : L R
  54. Sampling rate                            : 48.0 kHz
  55. Frame rate                               : 46.875 FPS (1024 SPF)
  56. Compression mode                         : Lossy
  57. Stream size                              : 65.7 MiB (5%)
  58. Default                                  : Yes
  59. Alternate group                          : 1
复制代码

















保举请利用qBittorrent,utorrent,transmission等标准BT软件下载!以获得最快速度。奉求保种!





回复

使用道具 举报

懒得打字嘛,点击右侧快捷回复 【右侧内容,后台自定义】
您需要登录后才可以回帖 登录 | 立即加入

本版积分规则

Archiver|小黑屋| 蓝光电影网 |网站地图

Copyright © 2021 Comsenz Inc. Powered by 蓝光电影网

蓝光电影网

本站内容由用户自主分享和转载自互联网,转载目的在于传递更多信息,并不代表本网赞同其观点和对其真实性负责。

如有侵权、违反国家法律政策行为,请联系我们,我们会第一时间及时清除和处理!

举报反馈邮箱:[email protected]

快速回复 返回顶部 返回列表