找回密码

蓝光电影网

查看: 93|回复: 0

[剧情] 僵尸世界大战[中文字幕].World.War.Z.2013.1080.WEB-DL.H264.AAC-MOMOWEB 1.55GB

[复制链接]
蓝光币
8
发表于 2022-7-29 01:51:25 | 显示全部楼层 |阅读模式


◎标  题 僵尸天下大战
◎译  名 地球末日战(港) / 末日之战(台) / 末日Z战
◎片  名 World War Z
◎年  代 2013
◎产  地 美国 / 英国 / 马耳他
◎类  别 行动 / 科幻 / 可骇
◎语  言 英语 / 西班牙语 / 希伯来语 / 阿拉伯语
◎上映日期 2013-06-02(伦敦首映) / 2013-06-21(美国)
◎IMDb评分 7/10 (632791人评价)
◎IMDb链接 https://www.imdb.com/title/tt0816711/
◎豆瓣评分 7.6/10 (247495人评价)
◎豆瓣链接 https://movie.douban.com/subject/2132473/
◎片  长 116分钟
◎导  演 马克·福斯特 Marc Forster
◎编  剧 马修·迈克尔·卡纳汉 Matthew Michael Carnahan
       德鲁·戈达德 Drew Goddard
       达蒙·林德洛夫 Damon Lindelof
       J·迈克尔·斯特拉辛斯基 J. Michael Straczynski
       马克斯·布鲁克斯 Max Brooks
◎演  员 布拉德·皮特 Brad Pitt
       米瑞·伊诺丝 Mireille Enos
       马修·福克斯 Matthew Fox
       埃里克·韦斯特 Eric West
       大卫·摩斯 David Morse
       詹姆斯·戴尔 James Badge Dale
       伊莱耶斯·加贝尔 Elyes Gabel
       莫里兹·布雷多 Moritz Bleibtreu
       斯特林·杰里斯 Sterling Jerins
       达妮埃拉·凯尔泰斯 Daniella Kertesz
       彼得·卡帕尔迪 Peter Capaldi
       米希尔·赫伊斯曼 Michiel Huisman
       鲁丝·内伽 Ruth Negga
       康斯坦丁·哈宾斯基 Konstantin Khabensky
       皮耶尔弗兰切斯科·法维诺 Pierfrancesco Favino
       露西·拉塞尔 Lucy Russell
       金斯利·本-阿迪尔 Kingsley Ben-Adir
       乔纳森·霍华德 Jonathan Howard
       格里高利·菲托西 Grégory Fitoussi
       伊万·卡马拉斯 Iván Kamarás
       安吉·K·亚当斯 Aggy K. Adams
       约翰·麦克米兰 John MacMillan
       法布里齐奥·扎卡里·奇诺 Fabrizio Zacharee Guido
       大卫·安德鲁斯 David Andrews
       克里斯蒂安·孔特雷拉斯 Christian Contreras
       法纳·莫科纳 Fana Mokoena
       鲁迪·博肯 Ludi Boeken
       布拉德·皮特 Brad Pitt
       马克·福斯特 Marc Forster
       迪·加德纳 Dede Gardner
       大卫·埃里森 David Ellison
       杰瑞米·克莱纳 Jeremy Kleiner
       马可·贝尔崔米 Marco Beltrami
       罗伯特·理查森 Robert Richardson
       本·塞雷森 Ben Seresin
       罗杰·巴顿 Roger Barton
       凯文·麦基弗 Kevin McKeever
       杨亮 Liang Yang
◎标  签 丧尸 / 美国 / 僵尸 / 灾难 / 科幻 / 惊悚 / 可骇 / 行动
◎简  介
  费城一个毫无征象的安好早晨,前结合国观察员盖瑞·雷恩(布拉德·皮特 Brad Pitt 饰)驾车载着妻子凯伦(米瑞·伊诺丝 Mireille Enos 饰)和两个女儿蕾切尔(Abigail Hargrove 饰)、康妮(Sterling Jerins 饰)外出。谁知原本欢畅的氛围很快变成发急与灭亡所替换,连环的爆炸,惊骇逃散的人群,无序的车祸以及啃咬他人的丧尸,富贵大城市转眼沦亡。盖瑞费尽九牛二虎之力带着妻女逃生,终极逃到结合国副秘书长地点的航母上,进而得知包括美国总统在内的数名大国领袖均已灭亡,丧尸病毒业已舒展全球。为了阻止天下扑灭,格里无法受命,和来自哈佛的病毒学博士法斯巴克(Elyes Gabel 饰)前往病毒的泉源之地寻觅消除危机的法子。                                    
                                这是一场几近完全没有希望且布满磨难的征程,天下命运危在旦夕……
  1. ##### MediaInfo ######
  2. General
  3. Complete name                            : World.War.Z.2013.1080.WEB-DL.H264.AAC-MOMOWEB.mp4
  4. Format                                   : MPEG-4
  5. Format profile                           : Base Media
  6. Codec ID                                 : isom (isom/iso2/avc1/mp41)
  7. File size                                : 1.55 GiB
  8. Duration                                 : 1 h 56 min
  9. Overall bit rate                         : 1 910 kb/s
  10. Writing application                      : Lavf58.29.100
  11. Video
  12. ID                                       : 1
  13. Format                                   : AVC
  14. Format/Info                              : Advanced Video Codec
  15. Format profile                           : [email protected]
  16. Format settings                          : CABAC / 3 Ref Frames
  17. Format settings, CABAC                   : Yes
  18. Format settings, Reference frames        : 3 frames
  19. Codec ID                                 : avc1
  20. Codec ID/Info                            : Advanced Video Coding
  21. Duration                                 : 1 h 56 min
  22. Bit rate                                 : 1 779 kb/s
  23. Width                                    : 1 920 pixels
  24. Height                                   : 800 pixels
  25. Display aspect ratio                     : 2.40:1
  26. Frame rate mode                          : Variable
  27. Frame rate                               : 23.976 (24000/1001/53875) FPS
  28. Minimum frame rate                       : 23.968 FPS
  29. Maximum frame rate                       : 23.981 FPS
  30. Color space                              : YUV
  31. Chroma subsampling                       : 4:2:0
  32. Bit depth                                : 8 bits
  33. Scan type                                : Progressive
  34. Bits/(Pixel*Frame)                       : 0.048
  35. Stream size                              : 1.44 GiB (93%)
  36. Color range                              : Limited
  37. Color primaries                          : BT.709
  38. Transfer characteristics                 : BT.709
  39. Matrix coefficients                      : BT.709
  40. Codec configuration box                  : avcC
  41. Audio
  42. ID                                       : 2
  43. Format                                   : AAC LC
  44. Format/Info                              : Advanced Audio Codec Low Complexity
  45. Codec ID                                 : mp4a-40-2
  46. Duration                                 : 1 h 56 min
  47. Bit rate mode                            : Constant
  48. Bit rate                                 : 125 kb/s
  49. Channel(s)                               : 2 channels
  50. Channel layout                           : L R
  51. Sampling rate                            : 44.1 kHz
  52. Frame rate                               : 43.066 FPS (1024 SPF)
  53. Compression mode                         : Lossy
  54. Stream size                              : 103 MiB (7%)
  55. Default                                  : Yes
  56. Alternate group                          : 1
复制代码

















保举请利用qBittorrent,utorrent,transmission等标准BT软件下载!以获得最快速度。奉求保种!





回复

使用道具 举报

懒得打字嘛,点击右侧快捷回复 【右侧内容,后台自定义】
您需要登录后才可以回帖 登录 | 立即加入

本版积分规则

Archiver|小黑屋| 蓝光电影网 |网站地图

Copyright © 2021 Comsenz Inc. Powered by 蓝光电影网

蓝光电影网

本站内容由用户自主分享和转载自互联网,转载目的在于传递更多信息,并不代表本网赞同其观点和对其真实性负责。

如有侵权、违反国家法律政策行为,请联系我们,我们会第一时间及时清除和处理!

举报反馈邮箱:[email protected]

快速回复 返回顶部 返回列表