找回密码

蓝光电影网

查看: 111|回复: 0

[剧情] 黄飞鸿之五:龙城歼霸[国粤语配音/中文字幕].Once.Upon.a.Time.in.China.V.1994.CC.BluRay.1080p.HEVC.10bit.2Audio.MiniFHD-MOMOHD 5.57GB

[复制链接]
蓝光币
8
发表于 2022-7-29 01:56:21 | 显示全部楼层 |阅读模式


◎标  题 黄飞鸿之五:龙城歼霸
◎译  名 黄飞鸿之龙城歼霸 / 黄飞鸿5 / Once Upon a Time in China V
◎片  名 黃飛鴻之五龍城殲霸
◎年  代 1994
◎产  地 中国香港
◎类  别 行动
◎语  言 粤语
◎上映日期 1994-11-17(中国香港)
◎IMDb评分 5.9/10 (1017人评价)
◎IMDb链接 https://www.imdb.com/title/tt0110073/
◎豆瓣评分 6.8/10 (14617人评价)
◎豆瓣链接 https://movie.douban.com/subject/1307507/
◎片  长 101 分钟
◎导  演 徐克 Hark Tsui
◎编  剧 徐克 Hark Tsui
       刘大木 Tai-Mok Lau
       林纪陶 Jason Lam
◎演  员 赵文卓 Man Cheuk Chiu
       关之琳 Rosamund Kwan
       莫少聪 Siu Chung Mok
       郑则仕 Kent Cheng
       郭晋安 Roger Kwok
       熊欣欣 Xinxin Xiong
       王静莹 Jane Wang
       刘洵 Shun Lau
       张铁林 Tielin Zhang
       谷垣健治 Kenji Tanigaki
       周树基 Kent Chow Shu-Kei
       江全 Chuen Chiang
       姚文基 Man-kei Yiu
       易天雄 Paco Yick
       吕少玲 Elaine Lui
       谭炳文 Ping-Man Tam
       林迪安 Dion Lam
       董玮 Wai Tung
       黄霑 James Wong
       徐克 Hark Tsui
       吴思远 See-Yuen Ng
       徐克 Hark Tsui
       林国华 Ardy Lam
       温文杰 Derek Wan
       麦子善 Marco Mak
       雷楚雄 Bill Lui
       赵国信 Kwok-Chun Chiu
       许安 Koan Hui
       元彬 Bun Yuen
       邹文怀 Raymond Chow
◎简  介
  八国联军入京,朝廷出走,举国大势一度紊乱。黄飞鸿(赵文卓 饰)与父亲黄麒英(刘询 饰)、十四姨(王静莹 饰)、徒弟梁宽(莫少聪 饰)、鬼脚七(熊欣欣 饰)一行人南下番禹,欲与十三姨(关之琳 饰)、猪肉荣(郑则仕 饰)、牙擦苏(郭晋安 饰)会合。师徒于路同担忧海盗夺粮的南粤米仓发生误解,两帮人不打不了解,黄飞鸿助其将盗米贼扭送衙门,惊觉盗米竟是差役领班谢四(张铁林 饰)指使。本来南海海盗趁大势紊乱,活动频仍,使番禹一地早无官员统制,差役不得已靠偷盗保持口粮。黄飞鸿有感激四等人忠义,遂放弃赴港计划,与当地海盗单眼英、张玉麟、张保仔等人展开连场搏杀……                                    
                                本片是徐克执导黄飞鸿系列的第五部。
  1. ##### MediaInfo ######
  2. General
  3. Unique ID                                : 52059434142965181470136803262494227578 (0x272A48457E35F12EEE668FCA76CD3C7A)
  4. Complete name                            : 黄飞鸿五:龙城歼霸.Once.Upon.a.Time.in.China.V.1994.CC.BluRay.1080p.HEVC.10bit.2Audio.MiniFHD-MOMOHD.mkv
  5. Format                                   : Matroska
  6. Format version                           : Version 2
  7. File size                                : 5.57 GiB
  8. Duration                                 : 1 h 41 min
  9. Overall bit rate                         : 7 839 kb/s
  10. Encoded date                             : UTC 2022-01-11 12:01:48
  11. Writing application                      : mkvmerge v42.0.0 ('Overtime') 64-bit
  12. Writing library                          : libebml v1.3.10 + libmatroska v1.5.2
  13. Video
  14. ID                                       : 1
  15. Format                                   : HEVC
  16. Format/Info                              : High Efficiency Video Coding
  17. Format profile                           : Main [email protected]@Main
  18. Codec ID                                 : V_MPEGH/ISO/HEVC
  19. Duration                                 : 1 h 41 min
  20. Bit rate                                 : 6 996 kb/s
  21. Width                                    : 1 920 pixels
  22. Height                                   : 800 pixels
  23. Display aspect ratio                     : 2.40:1
  24. Frame rate mode                          : Constant
  25. Frame rate                               : 23.976 (24000/1001/53875) FPS
  26. Color space                              : YUV
  27. Chroma subsampling                       : 4:2:0
  28. Bit depth                                : 10 bits
  29. Bits/(Pixel*Frame)                       : 0.190
  30. Stream size                              : 4.97 GiB (89%)
  31. Writing library                          : x265 3.4+2-73ca1d7be377:[Windows][GCC 6.3.0][64 bit] 10bit
  32. Encoding settings                        : cpuid=538751111039 / frame-threads=3 / numa-pools=8 / wpp / no-pmode / no-pme / no-psnr / no-ssim / log-level=2 / input-csp=1 / input-res=1920x800 / interlace=0 / total-frames=146386 / level-idc=0 / high-tier=1 / uhd-bd=0 / ref=3 / no-allow-non-conformance / no-repeat-headers / annexb / no-aud / no-hrd / info / hash=0 / no-temporal-layers / no-open-gop / min-keyint=23 / keyint=250 / gop-lookahead=0 / bframes=4 / b-adapt=2 / b-pyramid / bframe-bias=0 / rc-lookahead=20 / lookahead-slices=5 / NTM4NzU=uuDQuD2mJt9fsCf / scenecut=40 / hist-scenecut=0 / radl=0 / no-splice / no-intra-refresh / ctu=64 / min-cu-size=8 / no-rect / no-amp / max-tu-size=32 / tu-inter-depth=1 / tu-intra-depth=1 / limit-tu=0 / rdoq-level=0 / dynamic-rd=0.00 / no-ssim-rd / signhide / no-tskip / nr-intra=0 / nr-inter=0 / no-constrained-intra / no-strong-intra-smoothing / max-merge=3 / limit-refs=1 / no-limit-modes / me=1 / subme=2 / merange=57 / temporal-mvp / no-frame-dup / no-hme / weightp / no-weightb / no-analyze-src-pics / deblock=0:0 / no-sao / no-sao-non-deblock / rd=3 / selective-sao=0 / early-skip / rskip / no-fast-intra / no-tskip-fast / no-cu-lossless / b-intra / no-splitrd-skip / rdpenalty=0 / psy-rd=2.00 / psy-rdoq=0.00 / no-rd-refine / no-lossless / cbqpoffs=0 / crqpoffs=0 / rc=crf / crf=20.5 / qcomp=0.80 / qpstep=4 / stats-write=0 / stats-read=0 / ipratio=1.40 / pbratio=1.30 / aq-mode=2 / aq-strength=1.00 / cutree / zone-count=0 / no-strict-cbr / qg-size=32 / no-rc-grain / qpmax=69 / qpmin=0 / no-const-vbv / sar=1 / overscan=0 / videoformat=5 / range=0 / colorprim=2 / transfer=2 / colormatrix=2 / chromaloc=0 / display-window=0 / cll=0,0 / min-luma=0 / max-luma=1023 / log2-max-poc-lsb=8 / vui-timing-info / vui-hrd-info / slices=1 / no-opt-qp-pps / no-opt-ref-list-length-pps / no-multi-pass-opt-rps / scenecut-bias=0.05 / hist-threshold=0.01 / no-opt-cu-delta-qp / no-aq-motion / no-hdr10 / no-hdr10-opt / no-dhdr10-opt / no-idr-recovery-sei / analysis-reuse-level=0 / analysis-save-reuse-level=0 / analysis-load-reuse-level=0 / scale-factor=0 / refine-intra=0 / refine-inter=0 / refine-mv=1 / refine-ctu-distortion=0 / no-limit-sao / ctu-info=0 / no-lowpass-dct / refine-analysis-type=0 / copy-pic=1 / max-ausize-factor=1.0 / no-dynamic-refine / no-single-sei / no-hevc-aq / no-svt / no-field / qp-adaptation-range=1.00 / no-scenecut-aware-qpconformance-window-offsets / right=0 / bottom=0 / NTM4NzU= / decoder-max-rate=0
  33. Default                                  : Yes
  34. Forced                                   : No
  35. Audio #1
  36. ID                                       : 2
  37. Format                                   : AC-3
  38. Format/Info                              : Audio Coding 3
  39. Commercial name                          : Dolby Digital
  40. Codec ID                                 : A_AC3
  41. Duration                                 : 1 h 41 min
  42. Bit rate mode                            : Constant
  43. Bit rate                                 : 384 kb/s
  44. Channel(s)                               : 2 channels
  45. Channel layout                           : L R
  46. Sampling rate                            : 48.0 kHz
  47. Frame rate                               : 31.250 FPS (1536 SPF)
  48. Compression mode                         : Lossy
  49. Stream size                              : 279 MiB (5%)
  50. Language                                 : Chinese
  51. Service kind                             : Complete Main
  52. Default                                  : Yes
  53. Forced                                   : No
  54. Audio #2
  55. ID                                       : 3
  56. Format                                   : AC-3
  57. Format/Info                              : Audio Coding 3
  58. Commercial name                          : Dolby Digital
  59. Codec ID                                 : A_AC3
  60. Duration                                 : 1 h 41 min
  61. Bit rate mode                            : Constant
  62. Bit rate                                 : 448 kb/s
  63. Channel(s)                               : 1 channel
  64. Channel layout                           : C
  65. Sampling rate                            : 48.0 kHz
  66. Frame rate                               : 31.250 FPS (1536 SPF)
  67. Compression mode                         : Lossy
  68. Stream size                              : 326 MiB (6%)
  69. Language                                 : Chinese
  70. Service kind                             : Complete Main
  71. Default                                  : No
  72. Forced                                   : No
  73. Text #1
  74. ID                                       : 4
  75. Format                                   : UTF-8
  76. Codec ID                                 : S_TEXT/UTF8
  77. Codec ID/Info                            : UTF-8 Plain Text
  78. Duration                                 : 1 h 39 min
  79. Bit rate                                 : 47 b/s
  80. Count of elements                        : 1554
  81. Stream size                              : 34.8 KiB (0%)
  82. Language                                 : Chinese
  83. Default                                  : Yes
  84. Forced                                   : No
  85. Text #2
  86. ID                                       : 5
  87. Format                                   : UTF-8
  88. Codec ID                                 : S_TEXT/UTF8
  89. Codec ID/Info                            : UTF-8 Plain Text
  90. Duration                                 : 1 h 39 min
  91. Bit rate                                 : 47 b/s
  92. Count of elements                        : 1554
  93. Stream size                              : 34.8 KiB (0%)
  94. Language                                 : Chinese
  95. Default                                  : No
  96. Forced                                   : No
  97. Text #3
  98. ID                                       : 6
  99. Format                                   : PGS
  100. Muxing mode                              : zlib
  101. Codec ID                                 : S_HDMV/PGS
  102. Codec ID/Info                            : Picture based subtitle format used on BDs/HD-DVDs
  103. Duration                                 : 1 h 39 min
  104. Bit rate                                 : 50.1 kb/s
  105. Count of elements                        : 2358
  106. Stream size                              : 35.8 MiB (1%)
  107. Language                                 : English
  108. Default                                  : No
  109. Forced                                   : No
复制代码

















保举请利用qBittorrent,utorrent,transmission等标准BT软件下载!以获得最快速度。奉求保种!





回复

使用道具 举报

懒得打字嘛,点击右侧快捷回复 【右侧内容,后台自定义】
您需要登录后才可以回帖 登录 | 立即加入

本版积分规则

Archiver|小黑屋| 蓝光电影网 |网站地图

Copyright © 2021 Comsenz Inc. Powered by 蓝光电影网

蓝光电影网

本站内容由用户自主分享和转载自互联网,转载目的在于传递更多信息,并不代表本网赞同其观点和对其真实性负责。

如有侵权、违反国家法律政策行为,请联系我们,我们会第一时间及时清除和处理!

举报反馈邮箱:[email protected]

快速回复 返回顶部 返回列表