找回密码

蓝光电影网

查看: 130|回复: 0

[剧情] 金玉满堂[粤语配音/中文字幕].The.Chinese.Feast.1995.FRA.BluRay.1080p.HEVC.10bit.MiniFHD-MOMOHD 5.76GB

[复制链接]
蓝光币
8
发表于 2022-7-29 01:56:26 | 显示全部楼层 |阅读模式


◎标  题 金玉合座
◎译  名 满汉全席 / The Chinese Feast
◎片  名 金玉滿堂
◎年  代 1995
◎产  地 中国香港
◎类  别 笑剧 / 恋爱
◎语  言 粤语
◎上映日期 1995-01-28(中国香港)
◎IMDb评分 6.8/10 (1210人评价)
◎IMDb链接 https://www.imdb.com/title/tt0113475/
◎豆瓣评分 8.1/10 (87760人评价)
◎豆瓣链接 https://movie.douban.com/subject/1295374/
◎片  长 106分钟
◎导  演 徐克 Hark Tsui
◎编  剧 吴文辉 Man Fai Ng
       郑忠泰 Philip Cheng
       徐克 Hark Tsui
       阮继志 Kai-Chi Yun
◎演  员 张国荣 Leslie Cheung
       袁咏仪 Anita Yuen
       钟镇涛 Kenny Bee
       赵文卓 Man Cheuk Chiu
       罗家英 Kar-Ying Law
       熊欣欣 Xinxin Xiong
       樊亦敏 Yik-Man Fan
       倪淑君 Suk Kwan Ni
       黄百鸣 Raymond Wong
       邓祥 Tang Cheung
       唐佳 Chia Tang
       林富伟 Fu-wai Lam
       黄金棠 Kam-Tong Wong
       王章宝 Cheung-Bo Wong
       林志泰 Chi Tai Lam
       姜小亮
       司徒慧焯 Roy Szeto
       何家驹 Ka-Kui Ho
       鲍德熹 Peter Pau
       黄一飞 Yut Fei Wong
       黎彼得 Peter Lai
       邵传勇 Timothy Zao
       刘洵 Shun Lau
       张同祖 Tung Cho Cheung
       谢君豪 Kwan-Ho Tse
       李道谕 Do-Yu Lee
       卢雄 Paul Lo
       黄百鸣 Raymond Wong
       徐克 Hark Tsui
       卢冠廷 Lowell Lo
       鲍德熹 Peter Pau
       麦子善 Marco Mak
       文念中 Lim Chung Man
       张叔平 William Chang
       文念中 Lim Chung Man
       张叔平 William Chang
       陳秀明 Sau-Ming Chan
       许安 Koan Hui
       元彬 Bun Yuen
       李炳良 Bing-leung Lee
       罗礼贤 Bruce Law
◎简  介
  赵港生(张国荣饰)因腻烦黑社会生活,欲金盆洗手后去加拿大追随偶像山口百惠,而他挑选的移民路子竟是——加入加拿大酒店的厨师考试,丝绝不懂厨艺的他终极因做弊表露而惨败。                                    
                                某日,赵港生在酒楼碰见了厨艺大师龙昆宝(赵文卓饰),龙昆宝指导他去找自己的旧识满汉楼的欧老板(罗家英饰)进修,不想欧老板竟对他各式刁难,终极将其扫地出门。其间,港生和欧老板的女儿嘉惠(袁咏仪饰)却是在不经意间擦出了花火。                                    
                                欧老板师承中国著名大宴满汉全席之赵派,某日,牛派的继续人黄荣找上门来应战,后来又使狡计挖走了他手下的一切徒弟。这时,惟有港生自告奋勇,和嘉惠一路寻觅会做满汉全席的高人,那就是五年前莫名隐退厨艺界的廖杰(钟镇涛饰)。
  1. ##### MediaInfo ######
  2. General
  3. Unique ID                                : 234891433061913411865135189003010453807 (0xB0B671C838DC08721A08AF0652BE312F)
  4. Complete name                            : 金玉合座.The.Chinese.Feast.1995.FRA.BluRay.1080p.HEVC.10bit.MiniFHD-MOMOHD.mkv
  5. Format                                   : Matroska
  6. Format version                           : Version 2
  7. File size                                : 5.76 GiB
  8. Duration                                 : 1 h 46 min
  9. Overall bit rate                         : 7 742 kb/s
  10. Encoded date                             : UTC 2022-07-05 13:54:54
  11. Writing application                      : mkvmerge v42.0.0 ('Overtime') 64-bit
  12. Writing library                          : libebml v1.3.10 + libmatroska v1.5.2
  13. Video
  14. ID                                       : 1
  15. Format                                   : HEVC
  16. Format/Info                              : High Efficiency Video Coding
  17. Format profile                           : Main [email protected]@Main
  18. Codec ID                                 : V_MPEGH/ISO/HEVC
  19. Duration                                 : 1 h 46 min
  20. Bit rate                                 : 7 090 kb/s
  21. Width                                    : 1 920 pixels
  22. Height                                   : 804 pixels
  23. Display aspect ratio                     : 2.40:1
  24. Frame rate mode                          : Constant
  25. Frame rate                               : 24.000 FPS
  26. Color space                              : YUV
  27. Chroma subsampling                       : 4:2:0
  28. Bit depth                                : 10 bits
  29. Bits/(Pixel*Frame)                       : 0.191
  30. Stream size                              : 5.28 GiB (92%)
  31. Writing library                          : x265 3.4+2-73ca1d7be377:[Windows][GCC 6.3.0][64 bit] 10bit
  32. Encoding settings                        : cpuid=538751111039 / frame-threads=3 / numa-pools=8 / wpp / no-pmode / no-pme / no-psnr / no-ssim / log-level=2 / input-csp=1 / input-res=1920x804 / interlace=0 / total-frames=153432 / level-idc=0 / high-tier=1 / uhd-bd=0 / ref=3 / no-allow-non-conformance / no-repeat-headers / annexb / no-aud / no-hrd / info / hash=0 / no-temporal-layers / no-open-gop / min-keyint=24 / keyint=250 / gop-lookahead=0 / bframes=4 / b-adapt=2 / b-pyramid / bframe-bias=0 / rc-lookahead=20 / lookahead-slices=5 / NTM4NzU=uuDQuD2mJt9fsCf / scenecut=40 / hist-scenecut=0 / radl=0 / no-splice / no-intra-refresh / ctu=64 / min-cu-size=8 / no-rect / no-amp / max-tu-size=32 / tu-inter-depth=1 / tu-intra-depth=1 / limit-tu=0 / rdoq-level=0 / dynamic-rd=0.00 / no-ssim-rd / signhide / no-tskip / nr-intra=0 / nr-inter=0 / no-constrained-intra / no-strong-intra-smoothing / max-merge=3 / limit-refs=1 / no-limit-modes / me=1 / subme=2 / merange=57 / temporal-mvp / no-frame-dup / no-hme / weightp / no-weightb / no-analyze-src-pics / deblock=0:0 / no-sao / no-sao-non-deblock / rd=3 / selective-sao=0 / early-skip / rskip / no-fast-intra / no-tskip-fast / no-cu-lossless / b-intra / no-splitrd-skip / rdpenalty=0 / psy-rd=2.00 / psy-rdoq=0.00 / no-rd-refine / no-lossless / cbqpoffs=0 / crqpoffs=0 / rc=crf / crf=20.7 / qcomp=0.80 / qpstep=4 / stats-write=0 / stats-read=0 / ipratio=1.40 / pbratio=1.30 / aq-mode=2 / aq-strength=1.00 / cutree / zone-count=0 / no-strict-cbr / qg-size=32 / no-rc-grain / qpmax=69 / qpmin=0 / no-const-vbv / sar=1 / overscan=0 / videoformat=5 / range=0 / colorprim=1 / transfer=1 / colormatrix=1 / chromaloc=0 / display-window=0 / cll=0,0 / min-luma=0 / max-luma=1023 / log2-max-poc-lsb=8 / vui-timing-info / vui-hrd-info / slices=1 / no-opt-qp-pps / no-opt-ref-list-length-pps / no-multi-pass-opt-rps / scenecut-bias=0.05 / hist-threshold=0.01 / no-opt-cu-delta-qp / no-aq-motion / no-hdr10 / no-hdr10-opt / no-dhdr10-opt / no-idr-recovery-sei / analysis-reuse-level=0 / analysis-save-reuse-level=0 / analysis-load-reuse-level=0 / scale-factor=0 / refine-intra=0 / refine-inter=0 / refine-mv=1 / refine-ctu-distortion=0 / no-limit-sao / ctu-info=0 / no-lowpass-dct / refine-analysis-type=0 / copy-pic=1 / max-ausize-factor=1.0 / no-dynamic-refine / no-single-sei / no-hevc-aq / no-svt / no-field / qp-adaptation-range=1.00 / no-scenecut-aware-qpconformance-window-offsets / right=0 / bottom=0 / NTM4NzU= / decoder-max-rate=0
  33. Default                                  : Yes
  34. Forced                                   : No
  35. Color range                              : Limited
  36. Color primaries                          : BT.709
  37. Transfer characteristics                 : BT.709
  38. Matrix coefficients                      : BT.709
  39. Audio
  40. ID                                       : 2
  41. Format                                   : AC-3
  42. Format/Info                              : Audio Coding 3
  43. Commercial name                          : Dolby Digital
  44. Codec ID                                 : A_AC3
  45. Duration                                 : 1 h 46 min
  46. Bit rate mode                            : Constant
  47. Bit rate                                 : 640 kb/s
  48. Channel(s)                               : 6 channels
  49. Channel layout                           : L R C LFE Ls Rs
  50. Sampling rate                            : 48.0 kHz
  51. Frame rate                               : 31.250 FPS (1536 SPF)
  52. Compression mode                         : Lossy
  53. Stream size                              : 488 MiB (8%)
  54. Language                                 : Chinese
  55. Service kind                             : Complete Main
  56. Default                                  : Yes
  57. Forced                                   : No
  58. Text #1
  59. ID                                       : 3
  60. Format                                   : UTF-8
  61. Codec ID                                 : S_TEXT/UTF8
  62. Codec ID/Info                            : UTF-8 Plain Text
  63. Duration                                 : 1 h 43 min
  64. Bit rate                                 : 49 b/s
  65. Count of elements                        : 1266
  66. Stream size                              : 37.3 KiB (0%)
  67. Language                                 : Chinese
  68. Default                                  : Yes
  69. Forced                                   : No
  70. Text #2
  71. ID                                       : 4
  72. Format                                   : UTF-8
  73. Codec ID                                 : S_TEXT/UTF8
  74. Codec ID/Info                            : UTF-8 Plain Text
  75. Duration                                 : 1 h 43 min
  76. Bit rate                                 : 49 b/s
  77. Count of elements                        : 1266
  78. Stream size                              : 37.3 KiB (0%)
  79. Language                                 : Chinese
  80. Default                                  : No
  81. Forced                                   : No
  82. Text #3
  83. ID                                       : 5
  84. Format                                   : PGS
  85. Muxing mode                              : zlib
  86. Codec ID                                 : S_HDMV/PGS
  87. Codec ID/Info                            : Picture based subtitle format used on BDs/HD-DVDs
  88. Duration                                 : 1 h 44 min
  89. Bit rate                                 : 25.8 kb/s
  90. Count of elements                        : 2532
  91. Stream size                              : 19.3 MiB (0%)
  92. Language                                 : French
  93. Default                                  : No
  94. Forced                                   : No
复制代码

















保举请利用qBittorrent,utorrent,transmission等标准BT软件下载!以获得最快速度。奉求保种!





回复

使用道具 举报

懒得打字嘛,点击右侧快捷回复 【右侧内容,后台自定义】
您需要登录后才可以回帖 登录 | 立即加入

本版积分规则

Archiver|小黑屋| 蓝光电影网 |网站地图

Copyright © 2021 Comsenz Inc. Powered by 蓝光电影网

蓝光电影网

本站内容由用户自主分享和转载自互联网,转载目的在于传递更多信息,并不代表本网赞同其观点和对其真实性负责。

如有侵权、违反国家法律政策行为,请联系我们,我们会第一时间及时清除和处理!

举报反馈邮箱:[email protected]

快速回复 返回顶部 返回列表