找回密码

蓝光电影网

查看: 42|回复: 0

[剧情] 大三元[粤语配音/中文字幕].Tri.Star.1996.FRA.BluRay.1080p.HEVC.10bit.MiniFHD-MOMOHD 6.19GB

[复制链接]
蓝光币
7
发表于 2022-7-29 01:56:28 | 显示全部楼层 |阅读模式


◎标  题 大三元
◎译  名 Tri-Star
◎年  代 1996
◎产  地 中国香港
◎类  别 笑剧 / 恋爱
◎语  言 粤语
◎上映日期 1996-02-15(中国香港)
◎IMDb评分 6.2/10 (237人评价)
◎IMDb链接 https://www.imdb.com/title/tt0116001/
◎豆瓣评分 7.3/10 (10918人评价)
◎豆瓣链接 https://movie.douban.com/subject/1408130/
◎片  长 106分钟
◎导  演 徐克 Hark Tsui
◎编  剧 郑忠泰 Philip Cheng
       徐克 Hark Tsui
       陶云 Yun Tao
◎演  员 张国荣 Leslie Cheung
       袁咏仪 Anita Yuen
       刘青云 Sean Lau
       陈锦鸿 Sunny Chan
       江欣燕 Elvina Kong
       熊欣欣 Xinxin Xiong
       洪欣 Catherine Hung
       冯蔚蘅 Wai-Hung Fung
       陈豪 Moses Chan
       关莉娜 Lee-na Kwan
       苏伟南 Wai-Nam So
       钟景辉 King-fai Chung
       张镭 Radium Cheung
       鲍汉琳 Hon Lam Bau
       成奎安 Fui-On Shing
       李香琴 Heung Kam Lee
       谢天华 Michael Tse
       徐克 Hark Tsui
       黄百鸣 Raymond Wong
       卢冠廷 Lowell Lo
       杜可风 Christopher Doyle
       关莉娜 Lee-na Kwan
       刘静仪 Sylvia Liu
       罗礼贤 Bruce Law
       黄志明 Wong Chi-Ming
◎标  签 张国荣 / 徐克 / 香港 / 袁咏仪 / 香港电影 / 笑剧 / 刘青云 / 恋爱
◎简  介
  钟国强(张国荣饰)是名教堂的神父,某日妓女白雪花(袁咏仪饰)逃债至告解室,白雪花在底层挣扎的悲凉命运感动了神父,他决议起头拯救这群失路羔羊的精神和灵魂。                                    
                                同时,和白雪花的夜总会挂钩的黑帮老迈“恐龙”成为警方的方针,差人年老(刘青云饰)和手下(陈锦鸿饰)筹算将白雪花设为冲破点,起头了对其一行人长期间的钉梢。                                    
                                白雪花等人在神父的悉心指导下渐渐回归正途,她们找了新工作,还起头组乐团唱歌……欣喜的神父静静地重返教堂,却不知随后白雪花又被迫回到“文娱界”。神父再次出山,联手警方展开了一场救援行动!
  1. ##### MediaInfo ######
  2. General
  3. Unique ID                                : 308100819761033371485570233020640554137 (0xE7CA0F3937658ED638F88B4925CE6C99)
  4. Complete name                            : 大三元.Tri.Star.1996.FRA.BluRay.1080p.HEVC.10bit.MiniFHD-MOMOHD.mkv
  5. Format                                   : Matroska
  6. Format version                           : Version 2
  7. File size                                : 6.19 GiB
  8. Duration                                 : 1 h 46 min
  9. Overall bit rate                         : 8 319 kb/s
  10. Encoded date                             : UTC 2022-07-05 13:20:29
  11. Writing application                      : mkvmerge v42.0.0 ('Overtime') 64-bit
  12. Writing library                          : libebml v1.3.10 + libmatroska v1.5.2
  13. Video
  14. ID                                       : 1
  15. Format                                   : HEVC
  16. Format/Info                              : High Efficiency Video Coding
  17. Format profile                           : Main [email protected]@Main
  18. Codec ID                                 : V_MPEGH/ISO/HEVC
  19. Duration                                 : 1 h 46 min
  20. Bit rate                                 : 7 662 kb/s
  21. Width                                    : 1 920 pixels
  22. Height                                   : 1 080 pixels
  23. Display aspect ratio                     : 16:9
  24. Frame rate mode                          : Constant
  25. Frame rate                               : 24.000 FPS
  26. Color space                              : YUV
  27. Chroma subsampling                       : 4:2:0
  28. Bit depth                                : 10 bits
  29. Bits/(Pixel*Frame)                       : 0.154
  30. Stream size                              : 5.70 GiB (92%)
  31. Writing library                          : x265 3.4+2-73ca1d7be377:[Windows][GCC 6.3.0][64 bit] 10bit
  32. Encoding settings                        : cpuid=538751111039 / frame-threads=3 / numa-pools=8 / wpp / no-pmode / no-pme / no-psnr / no-ssim / log-level=2 / input-csp=1 / input-res=1920x1080 / interlace=0 / total-frames=153307 / level-idc=0 / high-tier=1 / uhd-bd=0 / ref=3 / no-allow-non-conformance / no-repeat-headers / annexb / no-aud / no-hrd / info / hash=0 / no-temporal-layers / no-open-gop / min-keyint=24 / keyint=250 / gop-lookahead=0 / bframes=4 / b-adapt=2 / b-pyramid / bframe-bias=0 / rc-lookahead=20 / lookahead-slices=6 / NTM4NzU=uuDQuD2mJt9fsCf / scenecut=40 / hist-scenecut=0 / radl=0 / no-splice / no-intra-refresh / ctu=64 / min-cu-size=8 / no-rect / no-amp / max-tu-size=32 / tu-inter-depth=1 / tu-intra-depth=1 / limit-tu=0 / rdoq-level=0 / dynamic-rd=0.00 / no-ssim-rd / signhide / no-tskip / nr-intra=0 / nr-inter=0 / no-constrained-intra / no-strong-intra-smoothing / max-merge=3 / limit-refs=1 / no-limit-modes / me=1 / subme=2 / merange=57 / temporal-mvp / no-frame-dup / no-hme / weightp / no-weightb / no-analyze-src-pics / deblock=0:0 / no-sao / no-sao-non-deblock / rd=3 / selective-sao=0 / early-skip / rskip / no-fast-intra / no-tskip-fast / no-cu-lossless / b-intra / no-splitrd-skip / rdpenalty=0 / psy-rd=2.00 / psy-rdoq=0.00 / no-rd-refine / no-lossless / cbqpoffs=0 / crqpoffs=0 / rc=crf / crf=21.7 / qcomp=0.80 / qpstep=4 / stats-write=0 / stats-read=0 / ipratio=1.40 / pbratio=1.30 / aq-mode=2 / aq-strength=1.00 / cutree / zone-count=0 / no-strict-cbr / qg-size=32 / no-rc-grain / qpmax=69 / qpmin=0 / no-const-vbv / sar=1 / overscan=0 / videoformat=5 / range=0 / colorprim=1 / transfer=1 / colormatrix=1 / chromaloc=0 / display-window=0 / cll=0,0 / min-luma=0 / max-luma=1023 / log2-max-poc-lsb=8 / vui-timing-info / vui-hrd-info / slices=1 / no-opt-qp-pps / no-opt-ref-list-length-pps / no-multi-pass-opt-rps / scenecut-bias=0.05 / hist-threshold=0.01 / no-opt-cu-delta-qp / no-aq-motion / no-hdr10 / no-hdr10-opt / no-dhdr10-opt / no-idr-recovery-sei / analysis-reuse-level=0 / analysis-save-reuse-level=0 / analysis-load-reuse-level=0 / scale-factor=0 / refine-intra=0 / refine-inter=0 / refine-mv=1 / refine-ctu-distortion=0 / no-limit-sao / ctu-info=0 / no-lowpass-dct / refine-analysis-type=0 / copy-pic=1 / max-ausize-factor=1.0 / no-dynamic-refine / no-single-sei / no-hevc-aq / no-svt / no-field / qp-adaptation-range=1.00 / no-scenecut-aware-qpconformance-window-offsets / right=0 / bottom=0 / NTM4NzU= / decoder-max-rate=0
  33. Default                                  : Yes
  34. Forced                                   : No
  35. Color range                              : Limited
  36. Color primaries                          : BT.709
  37. Transfer characteristics                 : BT.709
  38. Matrix coefficients                      : BT.709
  39. Audio
  40. ID                                       : 2
  41. Format                                   : AC-3
  42. Format/Info                              : Audio Coding 3
  43. Commercial name                          : Dolby Digital
  44. Codec ID                                 : A_AC3
  45. Duration                                 : 1 h 46 min
  46. Bit rate mode                            : Constant
  47. Bit rate                                 : 640 kb/s
  48. Channel(s)                               : 6 channels
  49. Channel layout                           : L R C LFE Ls Rs
  50. Sampling rate                            : 48.0 kHz
  51. Frame rate                               : 31.250 FPS (1536 SPF)
  52. Compression mode                         : Lossy
  53. Stream size                              : 487 MiB (8%)
  54. Language                                 : Chinese
  55. Service kind                             : Complete Main
  56. Default                                  : Yes
  57. Forced                                   : No
  58. Text #1
  59. ID                                       : 3
  60. Format                                   : UTF-8
  61. Codec ID                                 : S_TEXT/UTF8
  62. Codec ID/Info                            : UTF-8 Plain Text
  63. Duration                                 : 1 h 42 min
  64. Bit rate                                 : 58 b/s
  65. Count of elements                        : 1718
  66. Stream size                              : 44.4 KiB (0%)
  67. Language                                 : Chinese
  68. Default                                  : Yes
  69. Forced                                   : No
  70. Text #2
  71. ID                                       : 4
  72. Format                                   : UTF-8
  73. Codec ID                                 : S_TEXT/UTF8
  74. Codec ID/Info                            : UTF-8 Plain Text
  75. Duration                                 : 1 h 42 min
  76. Bit rate                                 : 58 b/s
  77. Count of elements                        : 1718
  78. Stream size                              : 44.4 KiB (0%)
  79. Language                                 : Chinese
  80. Default                                  : No
  81. Forced                                   : No
  82. Text #3
  83. ID                                       : 5
  84. Format                                   : PGS
  85. Muxing mode                              : zlib
  86. Codec ID                                 : S_HDMV/PGS
  87. Codec ID/Info                            : Picture based subtitle format used on BDs/HD-DVDs
  88. Duration                                 : 1 h 45 min
  89. Bit rate                                 : 39.5 kb/s
  90. Count of elements                        : 3120
  91. Stream size                              : 29.7 MiB (0%)
  92. Language                                 : French
  93. Default                                  : No
  94. Forced                                   : No
复制代码

















保举请利用qBittorrent,utorrent,transmission等标准BT软件下载!以获得最快速度。奉求保种!





回复

使用道具 举报

懒得打字嘛,点击右侧快捷回复 【右侧内容,后台自定义】
您需要登录后才可以回帖 登录 | 立即加入

本版积分规则

Archiver|小黑屋| 蓝光电影网 |网站地图

Copyright © 2021 Comsenz Inc. Powered by 蓝光电影网

蓝光电影网

本站内容由用户自主分享和转载自互联网,转载目的在于传递更多信息,并不代表本网赞同其观点和对其真实性负责。

如有侵权、违反国家法律政策行为,请联系我们,我们会第一时间及时清除和处理!

举报反馈邮箱:[email protected]

快速回复 返回顶部 返回列表